×

¿Problemas para descargar con Mozilla, EDGE? Deshabilita la opción "Abrir vinculos en una pestaña nueva" tal como lo muestra ésta imagen.

Armageddon (1998) REMUX 1080p Latino – CMHDD

253 vistas

Información de Armageddon (1998) REMUX 1080p Latino – CMHDD

Datos de la película

  • Calidad: Full 1080p
  • Audio: Español Latino AC3 5.1 BLURAY - Ingles DTS 5.1 BLURAY
  • Subtitulos: Español Latino PGS
  • Resolución: 1920x1080p
  • Formato: MKV
  • Codec: H.264
  • Encoder: Dracarys
  • Mediainfo: Clic para Mostrar Datos Ver
  • Format                      : Matroska
    Format version              : Version 4
    File size                   : 33.3 GiB
    Duration                    : 2 h 30 min
    Overall bit rate mode       : Variable
    Overall bit rate            : 31.7 Mb/s
    Movie name                  : Armageddon (1998) REMUX 1080p Latino - CMHDD
    Encoded date                : UTC 2021-07-03 05:57:36
    Writing application         : mkvmerge v56.1.0 ('My Friend') 64-bit
    Writing library             : libebml v1.4.2 + libmatroska v1.6.4
    Cover                       : Yes
    Attachments                 : cover.jpg

    Video
    ID                          : 1
    ID in the original source m : 4113 (0x1011)
    Format                      : AVC
    Format/Info                 : Advanced Video Codec
    Format profile              : High@L4.1
    Format settings             : CABAC / 4 Ref Frames
    Format settings, CABAC      : Yes
    Format settings, Reference  : 4 frames
    Codec ID                    : V_MPEG4/ISO/AVC
    Duration                    : 2 h 30 min
    Bit rate mode               : Variable
    Bit rate                    : 26.2 Mb/s
    Maximum bit rate            : 35.0 Mb/s
    Width                       : 1 920 pixels
    Height                      : 1 080 pixels
    Display aspect ratio        : 16:9
    Frame rate mode             : Constant
    Frame rate                  : 23.976 (24000/1001) FPS
    Color space                 : YUV
    Chroma subsampling          : 4:2:0
    Bit depth                   : 8 bits
    Scan type                   : Progressive
    Bits/(Pixel*Frame)          : 0.527
    Stream size                 : 27.6 GiB (83%)
    Default                     : Yes
    Forced                      : No
    Color range                 : Limited
    Color primaries             : BT.709
    Transfer characteristics    : BT.709
    Matrix coefficients         : BT.709
    Original source medium      : Blu-ray

    Audio #1
    ID                          : 2
    ID in the original source m : 4352 (0x1100)
    Format                      : DTS XLL
    Format/Info                 : Digital Theater Systems
    Commercial name             : DTS-HD Master Audio
    Codec ID                    : A_DTS
    Duration                    : 2 h 30 min
    Bit rate mode               : Variable
    Bit rate                    : 4 776 kb/s
    Channel(s)                  : 6 channels
    Channel layout              : C L R Ls Rs LFE
    Sampling rate               : 48.0 kHz
    Frame rate                  : 93.750 FPS (512 SPF)
    Bit depth                   : 24 bits
    Compression mode            : Lossless
    Stream size                 : 5.03 GiB (15%)
    Language                    : English
    Default                     : No
    Forced                      : No
    Original source medium      : Blu-ray

    Audio #2
    ID                          : 3
    Format                      : AC-3
    Format/Info                 : Audio Coding 3
    Commercial name             : Dolby Digital
    Codec ID                    : A_AC3
    Duration                    : 2 h 30 min
    Bit rate mode               : Constant
    Bit rate                    : 640 kb/s
    Channel(s)                  : 6 channels
    Channel layout              : L R C LFE Ls Rs
    Sampling rate               : 48.0 kHz
    Frame rate                  : 31.250 FPS (1536 SPF)
    Compression mode            : Lossy
    Stream size                 : 690 MiB (2%)
    Language                    : Spanish
    Service kind                : Complete Main
    Default                     : Yes
    Forced                      : No

    Text #1
    ID                          : 4
    Format                      : PGS
    Muxing mode                 : zlib
    Codec ID                    : S_HDMV/PGS
    Codec ID/Info               : Picture based subtitle format used on BDs/HD-DVDs
    Duration                    : 2 h 22 min
    Bit rate                    : 34.7 kb/s
    Count of elements           : 3034
    Stream size                 : 35.4 MiB (0%)
    Language                    : Spanish
    Default                     : No
    Forced                      : No

    Text #2
    ID                          : 5
    Format                      : PGS
    Muxing mode                 : zlib
    Codec ID                    : S_HDMV/PGS
    Codec ID/Info               : Picture based subtitle format used on BDs/HD-DVDs
    Duration                    : 1 h 44 min
    Bit rate                    : 356 b/s
    Count of elements           : 32
    Stream size                 : 272 KiB (0%)
    Language                    : Spanish
    Default                     : Yes
    Forced                      : No

    Menu
    00:00:00.000                : Chapter 01
    00:06:21.255                : Chapter 02
    00:11:56.298                : Chapter 03
    00:23:14.601                : Chapter 04
    00:28:47.058                : Chapter 05
    00:35:30.586                : Chapter 06
    00:39:57.520                : Chapter 07
    00:45:55.836                : Chapter 08
    00:48:40.709                : Chapter 09
    00:51:19.534                : Chapter 10
    00:56:26.925                : Chapter 11
    00:59:10.838                : Chapter 12
    01:07:15.322                : Chapter 13
    01:11:16.647                : Chapter 14
    01:21:02.816                : Chapter 15
    01:24:10.628                : Chapter 16
    01:32:42.682                : Chapter 17
    01:41:15.194                : Chapter 18
    01:51:56.084                : Chapter 19
    01:55:56.157                : Chapter 20
    01:59:27.535                : Chapter 21
    02:00:37.271                : Chapter 22
    02:05:21.430                : Chapter 23
    02:08:14.561                : Chapter 24
    02:12:50.837                : Chapter 25
    02:15:00.342                : Chapter 26
    02:23:56.044                : Chapter 27

  • Peso: 33.3 GiB

Sinopsis

Un asteroide del tamaño del estado de Texas apunta directamente hacia la Tierra. En la NASA, tan sólo encuentran una posible solución: enviar a un equipo de astronautas al espacio para que destruya el meteorito antes de que colisione con nuestro planeta. Para ello recurren a Harry S. Stamper, el mayor experto en perforaciones petrolíferas, y a su cualificado equipo de perforadores, para que aterricen en la superficie del asteroide, lo perforen e introduzcan un dispositivo nuclear que al estallar consiga desviar su trayectoria y poder salvar el planeta, evitando así el armagedón.

Ficha técnica

Video trailer de la película

Enlaces de descarga

Rip de Bluray

Descargar Armageddon (1998) REMUX 1080p Latino – CMHDD


Aportes de DPeliculasHDmega la pass es:dpeliculashdmega.org Aportes de CinemaniaHD la pass es:cinemaniahdd.com

Películas relacionadas

  • DC Liga De Supermascotas (2022) HD 1080p Latino

    DC Liga De Supermascotas (2022) HD 1080p Latino

    2022
    DC Liga De Supermascotas (2022) HD 1080p Latino

    1h 45m 2022

    Descargar DC Liga De Supermascotas (2022) HD 1080p Latino. Krypto el Superperro y Superman son amigos...

    Director: Sam Levine

    Género: Acción

    Actores: Yvette Nicole Brown

  • Invitacion Al Infierno (2022) MA WEB-DL 1080p Latino

    Invitacion Al Infierno (2022) MA WEB-DL 1080p Latino

    2022
    Invitacion Al Infierno (2022) MA WEB-DL 1080p Latino

    1h 45m 2022

    Descargar Invitacion Al Infierno (2022) MA WEB-DL 1080p Latino. Tras la muerte de su madre y quedarse...

    Director: Jessica M. Thompson

    Género: Suspenso

    Actores: Virág Bárány

  • Tremors (1990) REMUX 4K HDR Latino – CMHDD

    Tremors (1990) REMUX 4K HDR Latino – CMHDD

    1990
    Tremors (1990) REMUX 4K HDR Latino – CMHDD

    1h 35m 1990

    En Perfección, un pequeño pueblo al borde del desierto de Nevada, algo parece suceder debajo de la...

    Director: Susan Bierbaum

    Género: Acción

    Actores: Victor Wong

descargar Armageddon (1998) REMUX 1080p Latino – CMHDD Full 1080p 1080p gratis, Armageddon (1998) REMUX 1080p Latino – CMHDD Full 1080p mega 1 link, Armageddon (1998) REMUX 1080p Latino – CMHDD Full 1080p pelicula completa, descargar Armageddon (1998) REMUX 1080p Latino – CMHDD Full 1080p gratis en mega.

Armageddon (1998) REMUX 1080p Latino – CMHDD pelicula full hd, Armageddon (1998) REMUX 1080p Latino – CMHDD mega latino, Armageddon (1998) REMUX 1080p Latino – CMHDD 4k latino, Armageddon (1998) REMUX 1080p Latino – CMHDD pelicula completa, Armageddon (1998) REMUX 1080p Latino – CMHDD descargar gratis, descargar Armageddon (1998) REMUX 1080p Latino – CMHDD pelicula latino, Armageddon (1998) REMUX 1080p Latino – CMHDD 1 link mega, Armageddon (1998) REMUX 1080p Latino – CMHDD 1 link google drive, Armageddon (1998) REMUX 1080p Latino – CMHDD hd 1080p latino.
Comentarios 0