×

¿Problemas para descargar con Mozilla, EDGE? Deshabilita la opción "Abrir vinculos en una pestaña nueva" tal como lo muestra ésta imagen.

Argo (2012) [Theatrical] REMUX 4K HDR Latino – CMHDD

249 vistas

Información de Argo (2012) [Theatrical] REMUX 4K HDR Latino – CMHDD

Datos de la película

  • Calidad: 4K HDR
  • Audio: Español Latino AC3 5.1 BLURAY - Ingles DTS 5.1 BLURAY
  • Subtitulos: Español Latino PGS
  • Resolución: 3840x2160p
  • Formato: MKV
  • Codec: H.264
  • Encoder: Dracarys
  • Mediainfo: Clic para Mostrar Datos Ver
  • Format                      : Matroska
    Format version              : Version 4
    File size                   : 45.0 GiB
    Duration                    : 2 h 0 min
    Overall bit rate mode       : Variable
    Overall bit rate            : 53.5 Mb/s
    Movie name                  : Argo (2012) [Theatrical] REMUX 4K HDR Latino - CMHDD
    Encoded date                : UTC 2023-03-08 06:05:49
    Writing application         : mkvmerge v47.0.0 ('Black Flag') 64-bit
    Writing library             : libebml v1.3.10 + libmatroska v1.5.2
    Cover                       : Yes
    Attachments                 : cover.jpg

    Video
    ID                          : 1
    ID in the original source m : 4113 (0x1011)
    Format                      : HEVC
    Format/Info                 : High Efficiency Video Coding
    Format profile              : Main 10@L5.1@High
    HDR format                  : SMPTE ST 2086, HDR10 compatible
    Codec ID                    : V_MPEGH/ISO/HEVC
    Duration                    : 2 h 0 min
    Bit rate                    : 48.5 Mb/s
    Width                       : 3 840 pixels
    Height                      : 2 160 pixels
    Display aspect ratio        : 16:9
    Frame rate mode             : Constant
    Frame rate                  : 23.976 (24000/1001) FPS
    Color space                 : YUV
    Chroma subsampling          : 4:2:0 (Type 2)
    Bit depth                   : 10 bits
    Bits/(Pixel*Frame)          : 0.244
    Stream size                 : 40.8 GiB (91%)
    Default                     : Yes
    Forced                      : No
    Color range                 : Limited
    Color primaries             : BT.2020
    Transfer characteristics    : PQ
    Matrix coefficients         : BT.2020 non-constant
    Mastering display color pri : Display P3
    Mastering display luminance : min: 0.0050 cd/m2, max: 4000 cd/m2
    Maximum Content Light Level : 3055 cd/m2
    Maximum Frame-Average Light : 200 cd/m2
    Original source medium      : Blu-ray

    Audio #1
    ID                          : 2
    ID in the original source m : 4352 (0x1100)
    Format                      : DTS XLL
    Format/Info                 : Digital Theater Systems
    Commercial name             : DTS-HD Master Audio
    Codec ID                    : A_DTS
    Duration                    : 2 h 0 min
    Bit rate mode               : Variable
    Bit rate                    : 3 738 kb/s
    Channel(s)                  : 6 channels
    Channel layout              : C L R Ls Rs LFE
    Sampling rate               : 48.0 kHz
    Frame rate                  : 93.750 FPS (512 SPF)
    Bit depth                   : 24 bits
    Compression mode            : Lossless
    Stream size                 : 3.14 GiB (7%)
    Language                    : English
    Default                     : No
    Forced                      : No
    Original source medium      : Blu-ray

    Audio #2
    ID                          : 3
    ID in the original source m : 4353 (0x1101)
    Format                      : AC-3
    Format/Info                 : Audio Coding 3
    Commercial name             : Dolby Digital
    Codec ID                    : A_AC3
    Duration                    : 2 h 0 min
    Bit rate mode               : Constant
    Bit rate                    : 640 kb/s
    Channel(s)                  : 6 channels
    Channel layout              : L R C LFE Ls Rs
    Sampling rate               : 48.0 kHz
    Frame rate                  : 31.250 FPS (1536 SPF)
    Compression mode            : Lossy
    Stream size                 : 551 MiB (1%)
    Language                    : English
    Service kind                : Complete Main
    Default                     : No
    Forced                      : No
    Original source medium      : Blu-ray

    Audio #3
    ID                          : 4
    ID in the original source m : 4359 (0x1107)
    Format                      : AC-3
    Format/Info                 : Audio Coding 3
    Commercial name             : Dolby Digital
    Codec ID                    : A_AC3
    Duration                    : 2 h 0 min
    Bit rate mode               : Constant
    Bit rate                    : 640 kb/s
    Channel(s)                  : 6 channels
    Channel layout              : L R C LFE Ls Rs
    Sampling rate               : 48.0 kHz
    Frame rate                  : 31.250 FPS (1536 SPF)
    Compression mode            : Lossy
    Stream size                 : 551 MiB (1%)
    Language                    : Spanish
    Service kind                : Complete Main
    Default                     : Yes
    Forced                      : No
    Original source medium      : Blu-ray

    Text
    ID                          : 5
    ID in the original source m : 4779 (0x12AB)
    Format                      : PGS
    Muxing mode                 : zlib
    Codec ID                    : S_HDMV/PGS
    Codec ID/Info               : Picture based subtitle format used on BDs/HD-DVDs
    Duration                    : 1 h 59 min
    Bit rate                    : 33.1 kb/s
    Frame rate                  : 0.366 FPS
    Count of elements           : 2631
    Stream size                 : 28.4 MiB (0%)
    Language                    : Spanish
    Default                     : No
    Forced                      : No
    Original source medium      : Blu-ray

    Menu
    00:00:00.000                : en:Capítulo 01
    00:12:39.759                : en:Capítulo 02
    00:19:36.091                : en:Capítulo 03
    00:28:59.529                : en:Capítulo 04
    00:42:48.566                : en:Capítulo 05
    00:50:01.498                : en:Capítulo 06
    01:00:00.013                : en:Capítulo 07
    01:09:09.478                : en:Capítulo 08
    01:19:46.782                : en:Capítulo 09
    01:30:14.075                : en:Capítulo 10
    01:39:00.809                : en:Capítulo 11
    01:51:35.647                : en:Capítulo 12

  • Peso: 45.0 GiB

Sinopsis

Irán, año 1979. Cuando la embajada de los Estados Unidos en Teherán es ocupada por seguidores del Ayatolá Jomeini para pedir la extradición del Sha de Persia, la CIA y el gobierno canadiense organizaron una operación para rescatar a seis diplomáticos estadounidenses que se habían refugiado en la casa del embajador de Canadá. Con este fin se recurrió a un experto en rescatar rehenes y se preparó el escenario para el rodaje de una película de ciencia-ficción, de título «Argo», en la que participaba un equipo de cazatalentos de Hollywood. La misión: ir a Teherán y hacer pasar a los diplomáticos por un equipo de filmación canadiense para traerlos de vuelta a casa.

Ficha técnica

Video trailer de la película

Enlaces de descarga

Rip de Bluray

Descargar Argo (2012) [Theatrical] REMUX 4K HDR Latino – CMHDD


Aportes de DPeliculasHDmega la pass es:dpeliculashdmega.org Aportes de CinemaniaHD la pass es:cinemaniahdd.com Aportes recientes:cinemaniahdd.net
Guardado en : Drama , Suspenso

Películas relacionadas

  • The Chosen (2024) Temorada 4 WEB-DL 1080p Latino

    The Chosen (2024) Temorada 4 WEB-DL 1080p Latino

    2019
    The Chosen (2024) Temorada 4 WEB-DL 1080p Latino

    0h 43m 2019

    Por primera vez, la historia más grande jamás contada se presenta en una serie de varias temporadas....

    Director: Dallas Jenkins

    Género: Drama

    Actores: Yasmine Al-Bustami

  • Tiburón (1975) REMUX 1080p Latino-CMHDD

    Tiburón (1975) REMUX 1080p Latino-CMHDD

    1975
    Tiburón (1975) REMUX 1080p Latino-CMHDD

    2h 4m 1975

    Descargar Tiburón (1975) REMUX 1080p Latino-CMHDD. En la costa de un pequeño pueblo del Este de Estados...

    Director: Tom Joyner

    Género: Aventura

    Actores: Ted Grossman

descargar Argo (2012) [Theatrical] REMUX 4K HDR Latino – CMHDD 4K HDR 1080p gratis, Argo (2012) [Theatrical] REMUX 4K HDR Latino – CMHDD 4K HDR mega 1 link, Argo (2012) [Theatrical] REMUX 4K HDR Latino – CMHDD 4K HDR pelicula completa, descargar Argo (2012) [Theatrical] REMUX 4K HDR Latino – CMHDD 4K HDR gratis en mega.

Argo (2012) [Theatrical] REMUX 4K HDR Latino – CMHDD pelicula full hd, Argo (2012) [Theatrical] REMUX 4K HDR Latino – CMHDD mega latino, Argo (2012) [Theatrical] REMUX 4K HDR Latino – CMHDD 4k latino, Argo (2012) [Theatrical] REMUX 4K HDR Latino – CMHDD pelicula completa, Argo (2012) [Theatrical] REMUX 4K HDR Latino – CMHDD descargar gratis, descargar Argo (2012) [Theatrical] REMUX 4K HDR Latino – CMHDD pelicula latino, Argo (2012) [Theatrical] REMUX 4K HDR Latino – CMHDD 1 link mega, Argo (2012) [Theatrical] REMUX 4K HDR Latino – CMHDD 1 link google drive, Argo (2012) [Theatrical] REMUX 4K HDR Latino – CMHDD hd 1080p latino.
Comentarios 0