×

¿Problemas para descargar con Mozilla, EDGE? Deshabilita la opción "Abrir vinculos en una pestaña nueva" tal como lo muestra ésta imagen.

Justicia del Ártico: Escuadrón del trueno (2019) REMUX 1080p Latino

456 vistas

Información de Justicia del Ártico: Escuadrón del trueno (2019) REMUX 1080p Latino

Datos de la película

  • Calidad: Full 1080p
  • Audio: Español Latino AC3 5.1 Netflix - Ingles DTS 5.1 BLURAY
  • Subtitulos: Español Latino SRT - Ingles SRT
  • Resolución: 1920x1080p
  • Formato: MKV
  • Codec: H.264
  • Encoder: CinefiloCool
  • Mediainfo: Clic para Mostrar Datos Ver
  • Justicia del Artico (2019) REMUX 1080p Latino-CMHDD.mkv
    Format                      : Matroska
    Format version              : Version 4
    File size                   : 20.2 GiB
    Duration                    : 1 h 32 min
    Overall bit rate mode       : Variable
    Overall bit rate            : 31.1 Mb/s
    Movie name                  : CinemaniaHDD.Net
    Encoded date                : UTC 2020-02-14 02:49:54
    Writing application         : mkvmerge v42.0.0 ('Overtime') 64-bit
    Writing library             : libebml v1.3.10 + libmatroska v1.5.2
    Attachments                 : CINEMANIAHD.png

    Video
    ID                          : 1
    Format                      : AVC
    Format/Info                 : Advanced Video Codec
    Format profile              : High@L4.1
    Format settings             : CABAC / 4 Ref Frames
    Format settings, CABAC      : Yes
    Format settings, ReFrames   : 4 frames
    Codec ID                    : V_MPEG4/ISO/AVC
    Duration                    : 1 h 32 min
    Bit rate mode               : Variable
    Bit rate                    : 26.6 Mb/s
    Maximum bit rate            : 37.0 Mb/s
    Width                       : 1 920 pixels
    Height                      : 1 080 pixels
    Display aspect ratio        : 16:9
    Frame rate mode             : Constant
    Frame rate                  : 23.976 (24000/1001) FPS
    Color space                 : YUV
    Chroma subsampling          : 4:2:0
    Bit depth                   : 8 bits
    Scan type                   : Progressive
    Bits/(Pixel*Frame)          : 0.535
    Stream size                 : 17.2 GiB (86%)
    Title                       : Full HD1080p [REMUX]
    Default                     : Yes
    Forced                      : Yes

    Audio #1
    ID                          : 2
    Format                      : AC-3
    Format/Info                 : Audio Coding 3
    Commercial name             : Dolby Digital
    Codec ID                    : A_AC3
    Duration                    : 1 h 32 min
    Bit rate mode               : Constant
    Bit rate                    : 640 kb/s
    Channel(s)                  : 6 channels
    Channel layout              : L R C LFE Ls Rs
    Sampling rate               : 48.0 kHz
    Frame rate                  : 31.250 FPS (1536 SPF)
    Bit depth                   : 16 bits
    Compression mode            : Lossy
    Stream size                 : 425 MiB (2%)
    Title                       : AC3_5.1_Web_Esp
    Language                    : Spanish
    Service kind                : Complete Main
    Default                     : Yes
    Forced                      : Yes

    Audio #2
    ID                          : 3
    Format                      : DTS XLL
    Format/Info                 : Digital Theater Systems
    Commercial name             : DTS-HD Master Audio
    Codec ID                    : A_DTS
    Duration                    : 1 h 32 min
    Bit rate mode               : Variable
    Bit rate                    : 3 856 kb/s
    Channel(s)                  : 6 channels
    Channel layout              : C L R Ls Rs LFE
    Sampling rate               : 48.0 kHz
    Frame rate                  : 93.750 FPS (512 SPF)
    Bit depth                   : 24 bits
    Compression mode            : Lossless
    Stream size                 : 2.50 GiB (12%)
    Title                       : DTS-HD_5.1_Bluray_Eng
    Language                    : English
    Default                     : No
    Forced                      : No

    Text #1
    ID                          : 4
    Format                      : UTF-8
    Codec ID                    : S_TEXT/UTF8
    Codec ID/Info               : UTF-8 Plain Text
    Duration                    : 1 h 27 min
    Bit rate                    : 0 b/s
    Count of elements           : 18
    Stream size                 : 397 Bytes (0%)
    Title                       : Sub_Forzados
    Language                    : Spanish
    Default                     : Yes
    Forced                      : Yes

    Text #2
    ID                          : 5
    Format                      : UTF-8
    Codec ID                    : S_TEXT/UTF8
    Codec ID/Info               : UTF-8 Plain Text
    Duration                    : 1 h 31 min
    Bit rate                    : 58 b/s
    Count of elements           : 1316
    Stream size                 : 39.3 KiB (0%)
    Title                       : Sub_Esp
    Language                    : Spanish
    Default                     : No
    Forced                      : No

    Text #3
    ID                          : 6
    Format                      : UTF-8
    Codec ID                    : S_TEXT/UTF8
    Codec ID/Info               : UTF-8 Plain Text
    Duration                    : 1 h 31 min
    Bit rate                    : 69 b/s
    Count of elements           : 1599
    Stream size                 : 46.7 KiB (0%)
    Title                       : Sub_Eng
    Language                    : English
    Default                     : No
    Forced                      : No

    Menu
    00:00:00.000                : en:Chapter 01
    00:06:18.628                : en:Chapter 02
    00:12:54.524                : en:Chapter 03
    00:18:57.553                : en:Chapter 04
    00:23:55.267                : en:Chapter 05
    00:27:27.521                : en:Chapter 06
    00:33:06.151                : en:Chapter 07
    00:39:50.388                : en:Chapter 08
    00:47:18.002                : en:Chapter 09
    00:52:12.796                : en:Chapter 10
    00:58:18.370                : en:Chapter 11
    01:04:20.607                : en:Chapter 12
    01:12:02.193                : en:Chapter 13
    01:16:21.744                : en:Chapter 14
    01:20:27.489                : en:Chapter 15
    01:26:59.548                : en:Chapter 16

  • Peso: 20.2 GiB

Sinopsis

Descargar Justicia del Ártico: Escuadrón del trueno (2019) REMUX 1080p Latino. Swifty, el zorro ártico, trabaja en la sala de correos del Arctic Blast Delivery Service, pero sueña con convertirse algún día en un Top Dog (los mensajeros husky estrella del Ártico). Para probarse a sí mismo digno del papel de Top Dog, Swifty secretamente toma uno de los trineos y entrega un paquete misterioso a un lugar misterioso. Se topa con una fortaleza secreta donde se encuentra cara a cara con Doc Walrus, un genio malvado que camina con piernas mecánicas y comanda un leal ejército de esbirros frailecillos. Swifty pronto descubre el plan de Doc Walrus para derretir los casquetes polares e inundar el mundo con el fin de reinar como líder supremo. Ahora, Swifty tiene que contar con la ayuda de sus amigos: PB, un oso polar introvertido, Lemmy, un albatros atolondrado, Sal y Weez, dos nutrias teóricas de la conspiración y Jade Fox, un mecánico duro como las uñas.

Ficha técnica

Video trailer de la película

Enlaces de descarga

Rip de Bluray

Descargar Justicia del Ártico: Escuadrón del trueno (2019) REMUX 1080p Latino




Aportes de DPeliculasHDmega la pass es:dpeliculashdmega.org Aportes de CinemaniaHD la pass es:cinemaniahdd.com
Guardado en : Animación , Aventura , Comedia , Remux

Películas relacionadas

descargar Justicia del Ártico: Escuadrón del trueno (2019) REMUX 1080p Latino Full 1080p 1080p gratis, Justicia del Ártico: Escuadrón del trueno (2019) REMUX 1080p Latino Full 1080p mega 1 link, Justicia del Ártico: Escuadrón del trueno (2019) REMUX 1080p Latino Full 1080p pelicula completa, descargar Justicia del Ártico: Escuadrón del trueno (2019) REMUX 1080p Latino Full 1080p gratis en mega.

Justicia del Ártico: Escuadrón del trueno (2019) REMUX 1080p Latino pelicula full hd, Justicia del Ártico: Escuadrón del trueno (2019) REMUX 1080p Latino mega latino, Justicia del Ártico: Escuadrón del trueno (2019) REMUX 1080p Latino 4k latino, Justicia del Ártico: Escuadrón del trueno (2019) REMUX 1080p Latino pelicula completa, Justicia del Ártico: Escuadrón del trueno (2019) REMUX 1080p Latino descargar gratis, descargar Justicia del Ártico: Escuadrón del trueno (2019) REMUX 1080p Latino pelicula latino, Justicia del Ártico: Escuadrón del trueno (2019) REMUX 1080p Latino 1 link mega, Justicia del Ártico: Escuadrón del trueno (2019) REMUX 1080p Latino 1 link google drive, Justicia del Ártico: Escuadrón del trueno (2019) REMUX 1080p Latino hd 1080p latino.
Comentarios 0