×

¿Problemas para descargar con Mozilla, EDGE? Deshabilita la opción "Abrir vinculos en una pestaña nueva" tal como lo muestra ésta imagen.

Arachnophobia (1990) HD 1080p Latino – CMHDD

275 vistas

Información de Arachnophobia (1990) HD 1080p Latino – CMHDD

Datos de la película

  • Calidad: 1080p
  • Audio: Español Latino AC3 2.0 BLURAY - Ingles AC3 5.1 BLURAY
  • Subtitulos: Español Latino SRT- FORZADOS SRT
  • Resolución: 1920x1040p
  • Formato: MKV
  • Codec: H.264
  • Encoder: Dracarys
  • Mediainfo: Clic para Mostrar Datos Ver
  • Format                      : Matroska
    Format version              : Version 4
    File size                   : 3.39 GiB
    Duration                    : 1 h 49 min
    Overall bit rate            : 4 435 kb/s
    Movie name                  : Arachnophobia (1990) HD 1080p Latino - CMHDD
    Encoded date                : UTC 2020-08-05 14:52:39
    Writing application         : mkvmerge v46.0.0 ('No Deeper Escape') 64-bit
    Writing library             : libebml v1.3.10 + libmatroska v1.5.2

    Video
    ID                          : 1
    Format                      : AVC
    Format/Info                 : Advanced Video Codec
    Format profile              : High@L4.1
    Format settings             : CABAC / 4 Ref Frames
    Format settings, CABAC      : Yes
    Format settings, Reference  : 4 frames
    Codec ID                    : V_MPEG4/ISO/AVC
    Duration                    : 1 h 49 min
    Bit rate                    : 3 500 kb/s
    Width                       : 1 920 pixels
    Height                      : 1 040 pixels
    Display aspect ratio        : 1.85:1
    Frame rate mode             : Constant
    Frame rate                  : 23.976 (24000/1001) FPS
    Color space                 : YUV
    Chroma subsampling          : 4:2:0
    Bit depth                   : 8 bits
    Scan type                   : Progressive
    Bits/(Pixel*Frame)          : 0.073
    Stream size                 : 2.66 GiB (78%)
    Writing library             : x264 core 157 r2935 545de2f
    Encoding settings           : cabac=1 / ref=4 / deblock=1:0:0 / analyse=0x3:0x113 / me=hex / subme=8 / psy=1 / psy_rd=1.00:0.00 / mixed_ref=1 / me_range=16 / chroma_me=1 / trellis=2 / 8x8dct=1 / cqm=0 / deadzone=21,11 / fast_pskip=1 / chroma_qp_offset=-2 / threads=24 / lookahead_threads=4 / sliced_threads=0 / nr=0 / decimate=1 / interlaced=0 / bluray_compat=0 / constrained_intra=0 / bframes=3 / b_pyramid=2 / b_adapt=1 / b_bias=0 / direct=3 / weightb=1 / open_gop=0 / weightp=2 / keyint=240 / keyint_min=24 / scenecut=40 / intra_refresh=0 / rc_lookahead=50 / rc=abr / mbtree=1 / bitrate=3500 / ratetol=1.0 / qcomp=0.60 / qpmin=0 / qpmax=69 / qpstep=4 / vbv_maxrate=62500 / vbv_bufsize=78125 / nal_hrd=none / filler=0 / ip_ratio=1.40 / aq=1:1.00
    Default                     : Yes
    Forced                      : No
    Color range                 : Limited
    Color primaries             : BT.709
    Transfer characteristics    : BT.709
    Matrix coefficients         : BT.709

    Audio #1
    ID                          : 2
    Format                      : AC-3
    Format/Info                 : Audio Coding 3
    Commercial name             : Dolby Digital
    Codec ID                    : A_AC3
    Duration                    : 1 h 49 min
    Bit rate mode               : Constant
    Bit rate                    : 320 kb/s
    Channel(s)                  : 2 channels
    Channel layout              : L R
    Sampling rate               : 48.0 kHz
    Frame rate                  : 31.250 FPS (1536 SPF)
    Compression mode            : Lossy
    Stream size                 : 251 MiB (7%)
    Language                    : Spanish
    Service kind                : Complete Main
    Default                     : Yes
    Forced                      : No

    Audio #2
    ID                          : 3
    Format                      : AC-3
    Format/Info                 : Audio Coding 3
    Commercial name             : Dolby Digital
    Codec ID                    : A_AC3
    Duration                    : 1 h 49 min
    Bit rate mode               : Constant
    Bit rate                    : 640 kb/s
    Channel(s)                  : 6 channels
    Channel layout              : L R C LFE Ls Rs
    Sampling rate               : 48.0 kHz
    Frame rate                  : 31.250 FPS (1536 SPF)
    Compression mode            : Lossy
    Delay relative to video     : -5 ms
    Stream size                 : 501 MiB (14%)
    Language                    : English
    Service kind                : Complete Main
    Default                     : No
    Forced                      : No

    Text #1
    ID                          : 4
    Format                      : UTF-8
    Codec ID                    : S_TEXT/UTF8
    Codec ID/Info               : UTF-8 Plain Text
    Duration                    : 1 h 42 min
    Bit rate                    : 50 b/s
    Count of elements           : 1184
    Stream size                 : 37.9 KiB (0%)
    Language                    : Spanish
    Default                     : No
    Forced                      : No

    Text #2
    ID                          : 5
    Format                      : UTF-8
    Codec ID                    : S_TEXT/UTF8
    Codec ID/Info               : UTF-8 Plain Text
    Duration                    : 1 h 41 min
    Bit rate                    : 0 b/s
    Count of elements           : 5
    Stream size                 : 82.0 Bytes (0%)
    Title                       : Forzados
    Language                    : Spanish
    Default                     : Yes
    Forced                      : No

    Menu
    00:00:00.000                : :Chapter 1
    00:17:26.462                : :Chapter 2
    00:36:46.538                : :Chapter 3
    00:58:04.523                : :Chapter 4
    01:13:08.593                : :Chapter 5
    01:26:17.214                : :Chapter 6
    01:31:32.988                : :Chapter 7
    01:43:41.674                : :Chapter 8

  • Peso: 3.39 GiB

Sinopsis

Una pequeña población es atacada por una extraña variedad de araña extremadamente venenosa que ha sido transportada desde la selva amazónica hasta Estados Unidos. La araña se refugia en el granero de un joven médico que acaba de instalarse en el pueblo con su familia. El arácnido se reproduce y pronto comienza a morir gente en el pueblo. El médico decide investigar por su cuenta las causas de tan raras muertes

Ficha técnica

Video trailer de la película

Enlaces de descarga

Rip de Bluray

Descargar Arachnophobia (1990) HD 1080p Latino – CMHDD




Aportes de DPeliculasHDmega la pass es:dpeliculashdmega.org Aportes de CinemaniaHD la pass es:cinemaniahdd.com
Guardado en : Comedia , HD 1080p , Terror

Películas relacionadas

descargar Arachnophobia (1990) HD 1080p Latino – CMHDD 1080p 1080p gratis, Arachnophobia (1990) HD 1080p Latino – CMHDD 1080p mega 1 link, Arachnophobia (1990) HD 1080p Latino – CMHDD 1080p pelicula completa, descargar Arachnophobia (1990) HD 1080p Latino – CMHDD 1080p gratis en mega.

Arachnophobia (1990) HD 1080p Latino – CMHDD pelicula full hd, Arachnophobia (1990) HD 1080p Latino – CMHDD mega latino, Arachnophobia (1990) HD 1080p Latino – CMHDD 4k latino, Arachnophobia (1990) HD 1080p Latino – CMHDD pelicula completa, Arachnophobia (1990) HD 1080p Latino – CMHDD descargar gratis, descargar Arachnophobia (1990) HD 1080p Latino – CMHDD pelicula latino, Arachnophobia (1990) HD 1080p Latino – CMHDD 1 link mega, Arachnophobia (1990) HD 1080p Latino – CMHDD 1 link google drive, Arachnophobia (1990) HD 1080p Latino – CMHDD hd 1080p latino.
Comentarios 0