×

¿Problemas para descargar con Mozilla, EDGE? Deshabilita la opción "Abrir vinculos en una pestaña nueva" tal como lo muestra ésta imagen.

Aquaman y el reino perdido (2023) WEB-DL 1080p Latino

161 vistas

Información de Aquaman y el reino perdido (2023) WEB-DL 1080p Latino

Datos de la película

  • Calidad: WEBDL
  • Audio: Español Latino AC3 5.1 WEB-DL - Ingles AC3 5.1 WEB-DL
  • Subtitulos: Español Latino SRT- FORZADOS SRT
  • Resolución: 1920x1080p
  • Formato: MKV
  • Codec: H.264
  • Encoder: Melkor
  • Mediainfo: Clic para Mostrar Datos Ver
  • Aquaman and the Lost Kingdom (2023) WEB 1080p Latino.mkv
    Format                      : Matroska
    Format version              : Version 4
    File size                   : 9.38 GiB
    Duration                    : 2 h 4 min
    Overall bit rate            : 10.8 Mb/s
    Movie name                  : Aquaman and the Lost Kingdom (2023) CinemaniaHDD.Net
    Encoded date                : UTC 2024-01-23 08:42:19
    Writing application         : mkvmerge v56.1.0 ('My Friend') 64-bit
    Writing library             : libebml v1.4.2 + libmatroska v1.6.4
    Attachments                 : CINEMANIAHD.png
    Site                        : CinemaniaHDD.Net
    Uploader                    : Melkor

    Video
    ID                          : 1
    Format                      : AVC
    Format/Info                 : Advanced Video Codec
    Format profile              : High@L4
    Format settings             : CABAC / 4 Ref Frames
    Format settings, CABAC      : Yes
    Format settings, Reference  : 4 frames
    Codec ID                    : V_MPEG4/ISO/AVC
    Duration                    : 2 h 4 min
    Bit rate                    : 9 665 kb/s
    Width                       : 1 920 pixels
    Height                      : 1 080 pixels
    Display aspect ratio        : 16:9
    Frame rate mode             : Constant
    Frame rate                  : 23.976 FPS
    Color space                 : YUV
    Chroma subsampling          : 4:2:0
    Bit depth                   : 8 bits
    Scan type                   : Progressive
    Bits/(Pixel*Frame)          : 0.194
    Stream size                 : 8.38 GiB (89%)
    Title                       : Web HD1080p [CinemaniaHDD]
    Default                     : Yes
    Forced                      : Yes
    Color range                 : Limited
    Color primaries             : BT.709
    Transfer characteristics    : BT.709
    Matrix coefficients         : BT.709

    Audio #1
    ID                          : 2
    Format                      : AC-3
    Format/Info                 : Audio Coding 3
    Commercial name             : Dolby Digital
    Codec ID                    : A_AC3
    Duration                    : 2 h 4 min
    Bit rate mode               : Constant
    Bit rate                    : 384 kb/s
    Channel(s)                  : 6 channels
    Channel layout              : L R C LFE Ls Rs
    Sampling rate               : 48.0 kHz
    Frame rate                  : 31.250 FPS (1536 SPF)
    Compression mode            : Lossy
    Stream size                 : 341 MiB (4%)
    Title                       : Español Latino [CinemaniaHDD]
    Language                    : Spanish
    Service kind                : Complete Main
    Default                     : Yes
    Forced                      : Yes

    Audio #2
    ID                          : 3
    Format                      : E-AC-3 JOC
    Format/Info                 : Enhanced AC-3 with Joint Object Coding
    Commercial name             : Dolby Digital Plus with Dolby Atmos
    Codec ID                    : A_EAC3
    Duration                    : 2 h 4 min
    Bit rate mode               : Constant
    Bit rate                    : 768 kb/s
    Channel(s)                  : 6 channels
    Channel layout              : L R C LFE Ls Rs
    Sampling rate               : 48.0 kHz
    Frame rate                  : 31.250 FPS (1536 SPF)
    Compression mode            : Lossy
    Stream size                 : 682 MiB (7%)
    Title                       : Ingles [CinemaniaHDD]
    Language                    : English
    Service kind                : Complete Main
    Default                     : No
    Forced                      : No
    Complexity index            : 16
    Number of dynamic objects   : 15
    Bed channel count           : 1 channel
    Bed channel configuration   : LFE

    Text #1
    ID                          : 4
    Format                      : UTF-8
    Codec ID                    : S_TEXT/UTF8
    Codec ID/Info               : UTF-8 Plain Text
    Duration                    : 1 h 56 min
    Bit rate                    : 0 b/s
    Count of elements           : 28
    Stream size                 : 808 Bytes (0%)
    Title                       : Forzados-SRT [CinemaniaHDD]
    Language                    : Spanish
    Default                     : Yes
    Forced                      : Yes

    Text #2
    ID                          : 5
    Format                      : UTF-8
    Codec ID                    : S_TEXT/UTF8
    Codec ID/Info               : UTF-8 Plain Text
    Duration                    : 2 h 3 min
    Bit rate                    : 40 b/s
    Count of elements           : 1031
    Stream size                 : 36.2 KiB (0%)
    Title                       : Español-SRT [CinemaniaHDD]
    Language                    : Spanish
    Default                     : No
    Forced                      : No

    Text #3
    ID                          : 6
    Format                      : UTF-8
    Codec ID                    : S_TEXT/UTF8
    Codec ID/Info               : UTF-8 Plain Text
    Duration                    : 1 h 57 min
    Bit rate                    : 47 b/s
    Count of elements           : 1192
    Stream size                 : 41.0 KiB (0%)
    Title                       : Ingles-SRT [CinemaniaHDD]
    Language                    : English
    Default                     : No
    Forced                      : No

  • Peso: 9.38 GiB

Sinopsis

Descargar Aquaman y el reino perdido (2023) WEB-DL 1080p Latino. Al no poder derrotar a Aquaman la primera vez, Black Manta, todavía impulsado por la necesidad de vengar la muerte de su padre, no se detendrá ante nada para derrotar a Aquaman de una vez por todas. Esta vez Black Manta es más formidable que nunca y ejerce el poder del mítico Tridente Negro, que desata una fuerza antigua y malévola. Para derrotarlo, Aquaman recurrirá a su hermano encarcelado Orm, el ex rey de la Atlántida, para forjar una alianza improbable. Juntos, deben dejar de lado sus diferencias para proteger su reino y salvar a la familia de Aquaman, y al mundo, de una destrucción irreversible.

Ficha técnica

  • Titulo original: Aquaman and the Lost Kingdom
  • Fecha de lanzamiento: 20-12-2023 (United States of America)
  • Director: James Wan
  • Género: Acción, Aventura, Fantasía

Video trailer de la película

Enlaces de descarga

Rip de Bluray

Descargar Aquaman y el reino perdido (2023) WEB-DL 1080p Latino




Aportes de DPeliculasHDmega la pass es:dpeliculashdmega.org Aportes de CinemaniaHD la pass es:cinemaniahdd.com Aportes recientes:cinemaniahdd.net
Guardado en : Acción , Aventura , Fantasía

Películas relacionadas

  • True Lies (1994) REMUX 1080p Latino – CMHDD

    True Lies (1994) REMUX 1080p Latino – CMHDD

    1994
    True Lies (1994) REMUX 1080p Latino – CMHDD

    2h 21m 1994

    El agente especial Harry Tasker mantiene una doble vida. Harry habla seis idiomas, conoce y domina todas...

    Director: Sharron Reynolds-Enriquez

    Género: Acción

    Actores: William Shipman

  • True Lies (1994) REMUX 4K HDR Latino – CMHDD

    True Lies (1994) REMUX 4K HDR Latino – CMHDD

    1994
    True Lies (1994) REMUX 4K HDR Latino – CMHDD

    2h 21m 1994

    El agente especial Harry Tasker mantiene una doble vida. Harry habla seis idiomas, conoce y domina todas...

    Director: Sharron Reynolds-Enriquez

    Género: Acción

    Actores: William Shipman

  • Spider-Man (2002) REMUX 4K HDR Latino – CMHDD

    Spider-Man (2002) REMUX 4K HDR Latino – CMHDD

    2002
    Spider-Man (2002) REMUX 4K HDR Latino – CMHDD

    2h 1m 2002

    Peter Parker es un joven y tímido estudiante que vive con su tía May y su tío Ben desde la muerte...

    Director: Susana Preston

    Género: Acción

    Actores: William Joseph Firth

  • Sausage Party (2016) REMUX 1080p Latino – CMHDD

    Sausage Party (2016) REMUX 1080p Latino – CMHDD

    2016
    Sausage Party (2016) REMUX 1080p Latino – CMHDD

    1h 29m 2016

    La trama sigue el drama de una salchicha y sus amigos, otros productos de supermercado, cuando descubren...

    Director: Scott Armstrong

    Género: Animación

    Actores: Vincent Tong

descargar Aquaman y el reino perdido (2023) WEB-DL 1080p Latino WEBDL 1080p gratis, Aquaman y el reino perdido (2023) WEB-DL 1080p Latino WEBDL mega 1 link, Aquaman y el reino perdido (2023) WEB-DL 1080p Latino WEBDL pelicula completa, descargar Aquaman y el reino perdido (2023) WEB-DL 1080p Latino WEBDL gratis en mega.

Aquaman y el reino perdido (2023) WEB-DL 1080p Latino pelicula full hd, Aquaman y el reino perdido (2023) WEB-DL 1080p Latino mega latino, Aquaman y el reino perdido (2023) WEB-DL 1080p Latino 4k latino, Aquaman y el reino perdido (2023) WEB-DL 1080p Latino pelicula completa, Aquaman y el reino perdido (2023) WEB-DL 1080p Latino descargar gratis, descargar Aquaman y el reino perdido (2023) WEB-DL 1080p Latino pelicula latino, Aquaman y el reino perdido (2023) WEB-DL 1080p Latino 1 link mega, Aquaman y el reino perdido (2023) WEB-DL 1080p Latino 1 link google drive, Aquaman y el reino perdido (2023) WEB-DL 1080p Latino hd 1080p latino.
Comentarios 0