×

¿Problemas para descargar con Mozilla, EDGE? Deshabilita la opción "Abrir vinculos en una pestaña nueva" tal como lo muestra ésta imagen.

Aquaman and the Lost Kingdom (2023) REMUX 4K HDR Latino – CMHDD

47 vistas

Información de Aquaman and the Lost Kingdom (2023) REMUX 4K HDR Latino – CMHDD

Datos de la película

  • Calidad: 4K HDR
  • Audio: Español Latino AC3 5.1 BLURAY - Ingles DTS-HD Master 7.1 BLURAY
  • Subtitulos: Español Latino PGS
  • Resolución: 3840x2160p
  • Formato: MKV
  • Codec: H.264
  • Encoder: Dracarys
  • Mediainfo: Clic para Mostrar Datos Ver
  • Format                      : Matroska
    Format version              : Version 4
    File size                   : 60.6 GiB
    Duration                    : 2 h 4 min
    Overall bit rate mode       : Variable
    Overall bit rate            : 69.9 Mb/s
    Movie name                  : Aquaman and the Lost Kingdom (2023) REMUX 4K HDR Latino - CMHDD
    Encoded date                : UTC 2024-03-13 22:46:27
    Writing application         : mkvmerge v47.0.0 ('Black Flag') 64-bit
    Writing library             : libebml v1.3.10 + libmatroska v1.5.2

    Video
    ID                          : 1
    Format                      : HEVC
    Format/Info                 : High Efficiency Video Coding
    Format profile              : Main 10@L5.1@High
    HDR format                  : SMPTE ST 2086, HDR10 compatible
    Codec ID                    : V_MPEGH/ISO/HEVC
    Duration                    : 2 h 4 min
    Bit rate                    : 64.6 Mb/s
    Width                       : 3 840 pixels
    Height                      : 2 160 pixels
    Display aspect ratio        : 16:9
    Frame rate mode             : Constant
    Frame rate                  : 23.976 (24000/1001) FPS
    Color space                 : YUV
    Chroma subsampling          : 4:2:0 (Type 2)
    Bit depth                   : 10 bits
    Bits/(Pixel*Frame)          : 0.325
    Stream size                 : 56.0 GiB (92%)
    Language                    : English
    Default                     : Yes
    Forced                      : No
    Color range                 : Limited
    Color primaries             : BT.2020
    Transfer characteristics    : PQ
    Matrix coefficients         : BT.2020 non-constant
    Mastering display color pri : Display P3
    Mastering display luminance : min: 0.0001 cd/m2, max: 1000 cd/m2
    Maximum Content Light Level : 988 cd/m2
    Maximum Frame-Average Light : 249 cd/m2

    Audio #1
    ID                          : 2
    Format                      : AC-3
    Format/Info                 : Audio Coding 3
    Commercial name             : Dolby Digital
    Codec ID                    : A_AC3
    Duration                    : 2 h 4 min
    Bit rate mode               : Constant
    Bit rate                    : 640 kb/s
    Channel(s)                  : 6 channels
    Channel layout              : L R C LFE Ls Rs
    Sampling rate               : 48.0 kHz
    Frame rate                  : 31.250 FPS (1536 SPF)
    Compression mode            : Lossy
    Delay relative to video     : 27 ms
    Stream size                 : 568 MiB (1%)
    Language                    : Spanish
    Service kind                : Complete Main
    Default                     : Yes
    Forced                      : Yes

    Audio #2
    ID                          : 3
    Format                      : AC-3
    Format/Info                 : Audio Coding 3
    Commercial name             : Dolby Digital
    Codec ID                    : A_AC3
    Duration                    : 2 h 4 min
    Bit rate mode               : Constant
    Bit rate                    : 448 kb/s
    Channel(s)                  : 6 channels
    Channel layout              : L R C LFE Ls Rs
    Sampling rate               : 48.0 kHz
    Frame rate                  : 31.250 FPS (1536 SPF)
    Compression mode            : Lossy
    Stream size                 : 398 MiB (1%)
    Language                    : English
    Service kind                : Complete Main
    Default                     : No
    Forced                      : No

    Audio #3
    ID                          : 4
    Format                      : DTS ES XLL
    Format/Info                 : Digital Theater Systems
    Commercial name             : DTS-HD Master Audio
    Codec ID                    : A_DTS
    Duration                    : 2 h 4 min
    Bit rate mode               : Variable
    Bit rate                    : 4 177 kb/s
    Channel(s)                  : 8 channels
    Channel layout              : C L R Ls Rs LFE Lb Rb
    Sampling rate               : 48.0 kHz
    Frame rate                  : 93.750 FPS (512 SPF)
    Bit depth                   : 24 bits
    Compression mode            : Lossless
    Stream size                 : 3.62 GiB (6%)
    Language                    : English
    Default                     : No
    Forced                      : No

    Text #1
    ID                          : 5
    Format                      : UTF-8
    Codec ID                    : S_TEXT/UTF8
    Codec ID/Info               : UTF-8 Plain Text
    Duration                    : 1 h 56 min
    Bit rate                    : 0 b/s
    Frame rate                  : 0.004 FPS
    Count of elements           : 28
    Stream size                 : 806 Bytes (0%)
    Title                       : Forzados
    Language                    : Spanish
    Default                     : Yes
    Forced                      : Yes

    Text #2
    ID                          : 6
    Format                      : UTF-8
    Codec ID                    : S_TEXT/UTF8
    Codec ID/Info               : UTF-8 Plain Text
    Duration                    : 2 h 2 min
    Bit rate                    : 40 b/s
    Frame rate                  : 0.140 FPS
    Count of elements           : 1030
    Stream size                 : 36.4 KiB (0%)
    Language                    : Spanish
    Default                     : No
    Forced                      : No

    Text #3
    ID                          : 7
    Format                      : PGS
    Muxing mode                 : zlib
    Codec ID                    : S_HDMV/PGS
    Codec ID/Info               : Picture based subtitle format used on BDs/HD-DVDs
    Duration                    : 2 h 3 min
    Bit rate                    : 23.1 kb/s
    Frame rate                  : 0.279 FPS
    Count of elements           : 2062
    Stream size                 : 20.3 MiB (0%)
    Language                    : Spanish
    Default                     : No
    Forced                      : No

    Menu
    00:00:00.000                : en:Chapter 01
    00:08:42.063                : en:Chapter 02
    00:20:16.715                : en:Chapter 03
    00:29:05.660                : en:Chapter 04
    00:39:39.251                : en:Chapter 05
    00:50:52.007                : en:Chapter 06
    00:57:50.925                : en:Chapter 07
    01:11:52.433                : en:Chapter 08
    01:21:06.736                : en:Chapter 09
    01:30:31.134                : en:Chapter 10
    01:40:43.037                : en:Chapter 11
    01:52:54.142                : en:Chapter 12

     

  • Peso: 60.6 GiB

Sinopsis

Al no poder derrotar a Aquaman la primera vez, Black Manta, todavía impulsado por la necesidad de vengar la muerte de su padre, no se detendrá ante nada para derrotar a Aquaman de una vez por todas. Esta vez Black Manta es más formidable que nunca y ejerce el poder del mítico Tridente Negro, que desata una fuerza antigua y malévola. Para derrotarlo, Aquaman recurrirá a su hermano encarcelado Orm, el ex rey de la Atlántida, para forjar una alianza improbable. Juntos, deben dejar de lado sus diferencias para proteger su reino y salvar a la familia de Aquaman, y al mundo, de una destrucción irreversible.

Ficha técnica

  • Titulo original: Aquaman and the Lost Kingdom
  • Fecha de lanzamiento: 20-12-2023 (United States of America)
  • Director: James Wan
  • Género: Acción, Aventura, Fantasía

Video trailer de la película

Enlaces de descarga

Rip de Bluray

Descargar Aquaman and the Lost Kingdom (2023) REMUX 4K HDR Latino – CMHDD




Aportes de DPeliculasHDmega la pass es:dpeliculashdmega.org Aportes de CinemaniaHD la pass es:cinemaniahdd.com Aportes recientes:cinemaniahdd.net
Guardado en : Acción , Aventura , Fantasía

Películas relacionadas

descargar Aquaman and the Lost Kingdom (2023) REMUX 4K HDR Latino – CMHDD 4K HDR 1080p gratis, Aquaman and the Lost Kingdom (2023) REMUX 4K HDR Latino – CMHDD 4K HDR mega 1 link, Aquaman and the Lost Kingdom (2023) REMUX 4K HDR Latino – CMHDD 4K HDR pelicula completa, descargar Aquaman and the Lost Kingdom (2023) REMUX 4K HDR Latino – CMHDD 4K HDR gratis en mega.

Aquaman and the Lost Kingdom (2023) REMUX 4K HDR Latino – CMHDD pelicula full hd, Aquaman and the Lost Kingdom (2023) REMUX 4K HDR Latino – CMHDD mega latino, Aquaman and the Lost Kingdom (2023) REMUX 4K HDR Latino – CMHDD 4k latino, Aquaman and the Lost Kingdom (2023) REMUX 4K HDR Latino – CMHDD pelicula completa, Aquaman and the Lost Kingdom (2023) REMUX 4K HDR Latino – CMHDD descargar gratis, descargar Aquaman and the Lost Kingdom (2023) REMUX 4K HDR Latino – CMHDD pelicula latino, Aquaman and the Lost Kingdom (2023) REMUX 4K HDR Latino – CMHDD 1 link mega, Aquaman and the Lost Kingdom (2023) REMUX 4K HDR Latino – CMHDD 1 link google drive, Aquaman and the Lost Kingdom (2023) REMUX 4K HDR Latino – CMHDD hd 1080p latino.
Comentarios 0