×

¿Problemas para descargar con Mozilla, EDGE? Deshabilita la opción "Abrir vinculos en una pestaña nueva" tal como lo muestra ésta imagen.

Aquaman and the Lost Kingdom (2023) Full HD 1080p Latino-CMHDD

74 vistas

Información de Aquaman and the Lost Kingdom (2023) Full HD 1080p Latino-CMHDD

Datos de la película

  • Calidad: Full 1080p
  • Audio: Español Latino AC3 5.1 BLURAY - Ingles DTS 5.1 BLURAY
  • Subtitulos: Español Latino PGS - Ingles PGS
  • Resolución: 1920x1080p
  • Formato: MKV
  • Codec: H.264
  • Encoder: CinefiloCool
  • Mediainfo: Clic para Mostrar Datos Ver
  • Aquaman.And.The.Lost.Kingdom.2023.Bluray.FullHD.1080p.x264.Latino-CC@CMHDD.mkv
    Format                      : Matroska
    Format version              : Version 4
    File size                   : 7.93 GiB
    Duration                    : 2 h 4 min
    Overall bit rate mode       : Variable
    Overall bit rate            : 9 149 kb/s
    Movie name                  : Aquaman and the Lost Kingdom (2023) CinemaniaHDD.Net
    Encoded date                : UTC 2024-03-08 16:53:13
    Writing application         : mkvmerge v56.1.0 ('My Friend') 64-bit
    Writing library             : libebml v1.4.2 + libmatroska v1.6.4
    Cover                       : Yes
    Attachments                 : cover.jpg / CINEMANIAHD.png

    Video
    ID                          : 1
    Format                      : AVC
    Format/Info                 : Advanced Video Codec
    Format profile              : High@L4.2
    Format settings             : CABAC / 4 Ref Frames
    Format settings, CABAC      : Yes
    Format settings, Reference  : 4 frames
    Codec ID                    : V_MPEG4/ISO/AVC
    Duration                    : 2 h 4 min
    Bit rate mode               : Variable
    Bit rate                    : 6 976 kb/s
    Width                       : 1 920 pixels
    Height                      : 1 080 pixels
    Display aspect ratio        : 16:9
    Frame rate mode             : Constant
    Frame rate                  : 23.976 (24000/1001) FPS
    Color space                 : YUV
    Chroma subsampling          : 4:2:0
    Bit depth                   : 8 bits
    Scan type                   : Progressive
    Bits/(Pixel*Frame)          : 0.140
    Stream size                 : 6.05 GiB (76%)
    Title                       : Full HD1080p [CinemaniaHDD]
    Writing library             : x264 core 163 r3059 b684ebe0
    Encoding settings           : cabac=1 / ref=4 / deblock=1:-1:-1 / analyse=0x3:0x133 / me=tesa / subme=11 / psy=1 / psy_rd=1.00:0.15 / mixed_ref=1 / me_range=24 / chroma_me=1 / trellis=2 / 8x8dct=1 / cqm=0 / deadzone=21,11 / fast_pskip=0 / chroma_qp_offset=-3 / threads=24 / lookahead_threads=6 / sliced_threads=0 / nr=0 / decimate=1 / interlaced=0 / bluray_compat=0 / constrained_intra=0 / bframes=16 / b_pyramid=2 / b_adapt=2 / b_bias=0 / direct=3 / weightb=1 / open_gop=0 / weightp=2 / keyint=240 / keyint_min=24 / scenecut=40 / intra_refresh=0 / rc_lookahead=60 / rc=crf / mbtree=1 / crf=20.0 / qcomp=0.60 / qpmin=0 / qpmax=69 / qpstep=4 / vbv_maxrate=62500 / vbv_bufsize=78125 / crf_max=0.0 / nal_hrd=vbr / filler=0 / ip_ratio=1.40 / aq=1:1.00
    Default                     : Yes
    Forced                      : Yes
    Color range                 : Limited
    Color primaries             : BT.709
    Transfer characteristics    : BT.709
    Matrix coefficients         : BT.709

    Audio #1
    ID                          : 2
    ID in the original source m : 4356 (0x1104)
    Format                      : AC-3
    Format/Info                 : Audio Coding 3
    Commercial name             : Dolby Digital
    Codec ID                    : A_AC3
    Duration                    : 2 h 4 min
    Bit rate mode               : Constant
    Bit rate                    : 640 kb/s
    Channel(s)                  : 6 channels
    Channel layout              : L R C LFE Ls Rs
    Sampling rate               : 48.0 kHz
    Frame rate                  : 31.250 FPS (1536 SPF)
    Compression mode            : Lossy
    Stream size                 : 568 MiB (7%)
    Title                       : Español Latino [CinemaniaHDD]
    Language                    : Spanish
    Service kind                : Complete Main
    Default                     : Yes
    Forced                      : Yes
    Original source medium      : Blu-ray

    Audio #2
    ID                          : 3
    Format                      : DTS
    Format/Info                 : Digital Theater Systems
    Codec ID                    : A_DTS
    Duration                    : 2 h 4 min
    Bit rate mode               : Constant
    Bit rate                    : 1 509 kb/s
    Channel(s)                  : 6 channels
    Channel layout              : C L R Ls Rs LFE
    Sampling rate               : 48.0 kHz
    Frame rate                  : 93.750 FPS (512 SPF)
    Bit depth                   : 16 bits
    Compression mode            : Lossy
    Stream size                 : 1.31 GiB (16%)
    Title                       : Ingles [CinemaniaHDD]
    Language                    : English
    Default                     : No
    Forced                      : No

    Text #1
    ID                          : 4
    ID in the original source m : 4612 (0x1204)
    Format                      : PGS
    Muxing mode                 : zlib
    Codec ID                    : S_HDMV/PGS
    Codec ID/Info               : Picture based subtitle format used on BDs/HD-DVDs
    Duration                    : 1 h 56 min
    Bit rate                    : 712 b/s
    Count of elements           : 56
    Stream size                 : 606 KiB (0%)
    Title                       : Forzados-PGS [CinemaniaHDD]
    Language                    : Spanish
    Default                     : No
    Forced                      : No
    Original source medium      : Blu-ray

    Text #2
    ID                          : 5
    ID in the original source m : 4610 (0x1202)
    Format                      : PGS
    Muxing mode                 : zlib
    Codec ID                    : S_HDMV/PGS
    Codec ID/Info               : Picture based subtitle format used on BDs/HD-DVDs
    Duration                    : 2 h 3 min
    Bit rate                    : 23.1 kb/s
    Count of elements           : 2062
    Stream size                 : 20.3 MiB (0%)
    Title                       : Español-PGS [CinemaniaHDD]
    Language                    : Spanish
    Default                     : No
    Forced                      : No
    Original source medium      : Blu-ray

    Text #3
    ID                          : 6
    ID in the original source m : 4608 (0x1200)
    Format                      : PGS
    Muxing mode                 : zlib
    Codec ID                    : S_HDMV/PGS
    Codec ID/Info               : Picture based subtitle format used on BDs/HD-DVDs
    Duration                    : 1 h 55 min
    Bit rate                    : 32.7 kb/s
    Count of elements           : 2880
    Stream size                 : 27.0 MiB (0%)
    Title                       : Ingles-PGS [CinemaniaHDD]
    Language                    : English
    Default                     : No
    Forced                      : No
    Original source medium      : Blu-ray

    Text #4
    ID                          : 7
    Format                      : UTF-8
    Codec ID                    : S_TEXT/UTF8
    Codec ID/Info               : UTF-8 Plain Text
    Duration                    : 1 h 56 min
    Bit rate                    : 0 b/s
    Count of elements           : 28
    Stream size                 : 808 Bytes (0%)
    Title                       : Forzados-SRT [CinemaniaHDD]
    Language                    : Spanish
    Default                     : Yes
    Forced                      : Yes

    Text #5
    ID                          : 8
    Format                      : UTF-8
    Codec ID                    : S_TEXT/UTF8
    Codec ID/Info               : UTF-8 Plain Text
    Duration                    : 2 h 3 min
    Bit rate                    : 40 b/s
    Count of elements           : 1031
    Stream size                 : 36.2 KiB (0%)
    Title                       : Español-SRT [CinemaniaHDD]
    Language                    : Spanish
    Default                     : No
    Forced                      : No

    Menu
    00:00:00.000                : Chapter 01
    00:08:42.104                : Chapter 02
    00:20:16.965                : Chapter 03
    00:29:05.660                : Chapter 04
    00:39:39.251                : Chapter 05
    00:50:52.007                : Chapter 06
    00:57:51.050                : Chapter 07
    01:11:52.433                : Chapter 08
    01:21:06.945                : Chapter 09
    01:30:31.426                : Chapter 10
    01:40:43.037                : Chapter 11
    01:52:54.476                : Chapter 12

  • Peso: 7.93 GiB

Sinopsis

Descargar Aquaman and the Lost Kingdom (2023) Full HD 1080p Latino-CMHDD. Al no poder derrotar a Aquaman la primera vez, Black Manta, todavía impulsado por la necesidad de vengar la muerte de su padre, no se detendrá ante nada para derrotar a Aquaman de una vez por todas. Esta vez Black Manta es más formidable que nunca y ejerce el poder del mítico Tridente Negro, que desata una fuerza antigua y malévola. Para derrotarlo, Aquaman recurrirá a su hermano encarcelado Orm, el ex rey de la Atlántida, para forjar una alianza improbable. Juntos, deben dejar de lado sus diferencias para proteger su reino y salvar a la familia de Aquaman, y al mundo, de una destrucción irreversible.

Ficha técnica

Video trailer de la película

Enlaces de descarga

Rip de Bluray

Descargar Aquaman and the Lost Kingdom (2023) Full HD 1080p Latino-CMHDD




Aportes de DPeliculasHDmega la pass es:dpeliculashdmega.org Aportes de CinemaniaHD la pass es:cinemaniahdd.com Aportes recientes:cinemaniahdd.net

Películas relacionadas

descargar Aquaman and the Lost Kingdom (2023) Full HD 1080p Latino-CMHDD Full 1080p 1080p gratis, Aquaman and the Lost Kingdom (2023) Full HD 1080p Latino-CMHDD Full 1080p mega 1 link, Aquaman and the Lost Kingdom (2023) Full HD 1080p Latino-CMHDD Full 1080p pelicula completa, descargar Aquaman and the Lost Kingdom (2023) Full HD 1080p Latino-CMHDD Full 1080p gratis en mega.

Aquaman and the Lost Kingdom (2023) Full HD 1080p Latino-CMHDD pelicula full hd, Aquaman and the Lost Kingdom (2023) Full HD 1080p Latino-CMHDD mega latino, Aquaman and the Lost Kingdom (2023) Full HD 1080p Latino-CMHDD 4k latino, Aquaman and the Lost Kingdom (2023) Full HD 1080p Latino-CMHDD pelicula completa, Aquaman and the Lost Kingdom (2023) Full HD 1080p Latino-CMHDD descargar gratis, descargar Aquaman and the Lost Kingdom (2023) Full HD 1080p Latino-CMHDD pelicula latino, Aquaman and the Lost Kingdom (2023) Full HD 1080p Latino-CMHDD 1 link mega, Aquaman and the Lost Kingdom (2023) Full HD 1080p Latino-CMHDD 1 link google drive, Aquaman and the Lost Kingdom (2023) Full HD 1080p Latino-CMHDD hd 1080p latino.
Comentarios 0