×

¿Problemas para descargar con Mozilla, EDGE? Deshabilita la opción "Abrir vinculos en una pestaña nueva" tal como lo muestra ésta imagen.

Aquaman (2018) [IMAX] REMUX 4K HDR Latino – CMHDD

167 vistas

Información de Aquaman (2018) [IMAX] REMUX 4K HDR Latino – CMHDD

Datos de la película

  • Calidad: 4K HDR
  • Audio: Se especifica abajo de la Sinopsis
  • Subtitulos: Español Latino PGS
  • Resolución: 3840x2160p
  • Formato:
  • Codec: H.264
  • Encoder: Dracarys
  • Mediainfo: Clic para Mostrar Datos Ver
  • Format                      : Matroska
    Format version              : Version 4
    File size                   : 58.6 GiB
    Duration                    : 2 h 23 min
    Overall bit rate mode       : Variable
    Overall bit rate            : 58.6 Mb/s
    Movie name                  : Aquaman (2018) [IMAX] REMUX 4K HDR Latino - CMHDD
    Encoded date                : UTC 2024-01-17 01:36:44
    Writing application         : mkvmerge v47.0.0 ('Black Flag') 64-bit
    Writing library             : libebml v1.3.10 + libmatroska v1.5.2

    Video
    ID                          : 1
    Format                      : HEVC
    Format/Info                 : High Efficiency Video Coding
    Format profile              : Main 10@L5.1@High
    HDR format                  : SMPTE ST 2086, HDR10 compatible
    Codec ID                    : V_MPEGH/ISO/HEVC
    Duration                    : 2 h 23 min
    Bit rate                    : 52.7 Mb/s
    Width                       : 3 840 pixels
    Height                      : 2 160 pixels
    Display aspect ratio        : 16:9
    Frame rate mode             : Variable
    Frame rate                  : 25.337 FPS
    Original frame rate         : 23.976 (24000/1001) FPS
    Color space                 : YUV
    Chroma subsampling          : 4:2:0 (Type 2)
    Bit depth                   : 10 bits
    Bits/(Pixel*Frame)          : 0.251
    Stream size                 : 52.8 GiB (90%)
    Language                    : English
    Default                     : Yes
    Forced                      : No
    Color range                 : Limited
    Color primaries             : BT.2020
    Transfer characteristics    : PQ
    Matrix coefficients         : BT.2020 non-constant
    Mastering display color pri : Display P3
    Mastering display luminance : min: 0.0050 cd/m2, max: 4000 cd/m2
    Maximum Content Light Level : 1506 cd/m2
    Maximum Frame-Average Light : 459 cd/m2

    Audio #1
    ID                          : 2
    Format                      : AC-3
    Format/Info                 : Audio Coding 3
    Commercial name             : Dolby Digital
    Codec ID                    : A_AC3
    Duration                    : 2 h 23 min
    Bit rate mode               : Constant
    Bit rate                    : 640 kb/s
    Channel(s)                  : 6 channels
    Channel layout              : L R C LFE Ls Rs
    Sampling rate               : 48.0 kHz
    Frame rate                  : 31.250 FPS (1536 SPF)
    Compression mode            : Lossy
    Delay relative to video     : 32 ms
    Stream size                 : 656 MiB (1%)
    Language                    : Spanish
    Service kind                : Complete Main
    Default                     : Yes
    Forced                      : No

    Audio #2
    ID                          : 3
    Format                      : E-AC-3
    Format/Info                 : Enhanced AC-3
    Commercial name             : Dolby Digital Plus
    Format profile              : Blu-ray Disc
    Codec ID                    : A_EAC3
    Duration                    : 2 h 23 min
    Bit rate mode               : Constant
    Bit rate                    : 1 536 kb/s
    Channel(s)                  : 8 channels
    Channel layout              : L R C LFE Ls Rs Lb Rb
    Sampling rate               : 48.0 kHz
    Frame rate                  : 31.250 FPS (1536 SPF)
    Compression mode            : Lossy
    Stream size                 : 1.54 GiB (3%)
    Language                    : English
    Service kind                : Complete Main
    Default                     : No
    Forced                      : No

    Audio #3
    ID                          : 4
    Format                      : MLP FBA 16-ch
    Format/Info                 : Meridian Lossless Packing FBA with 16-channel presentation
    Commercial name             : Dolby TrueHD with Dolby Atmos
    Codec ID                    : A_TRUEHD
    Duration                    : 2 h 23 min
    Bit rate mode               : Variable
    Bit rate                    : 3 579 kb/s
    Maximum bit rate            : 6 144 kb/s
    Channel(s)                  : 8 channels
    Channel layout              : L R C LFE Ls Rs Lb Rb
    Sampling rate               : 48.0 kHz
    Frame rate                  : 1 200.000 FPS (40 SPF)
    Compression mode            : Lossless
    Stream size                 : 3.58 GiB (6%)
    Language                    : English
    Default                     : No
    Forced                      : No
    Number of dynamic objects   : 15
    Bed channel count           : 1 channel
    Bed channel configuration   : LFE

    Text #1
    ID                          : 5
    Format                      : UTF-8
    Codec ID                    : S_TEXT/UTF8
    Codec ID/Info               : UTF-8 Plain Text
    Duration                    : 1 h 46 min
    Bit rate                    : 0 b/s
    Frame rate                  : 0.001 FPS
    Count of elements           : 7
    Stream size                 : 222 Bytes (0%)
    Title                       : Forzado
    Language                    : Spanish
    Default                     : Yes
    Forced                      : No

    Text #2
    ID                          : 6
    Format                      : UTF-8
    Codec ID                    : S_TEXT/UTF8
    Codec ID/Info               : UTF-8 Plain Text
    Duration                    : 2 h 14 min
    Bit rate                    : 37 b/s
    Frame rate                  : 0.139 FPS
    Count of elements           : 1126
    Stream size                 : 36.6 KiB (0%)
    Language                    : Spanish
    Default                     : No
    Forced                      : No

    Text #3
    ID                          : 7
    Format                      : PGS
    Muxing mode                 : zlib
    Codec ID                    : S_HDMV/PGS
    Codec ID/Info               : Picture based subtitle format used on BDs/HD-DVDs
    Duration                    : 1 h 46 min
    Bit rate                    : 475 b/s
    Frame rate                  : 0.002 FPS
    Count of elements           : 14
    Stream size                 : 369 KiB (0%)
    Title                       : Forzado
    Language                    : Spanish
    Default                     : No
    Forced                      : No

    Text #4
    ID                          : 8
    Format                      : PGS
    Muxing mode                 : zlib
    Codec ID                    : S_HDMV/PGS
    Codec ID/Info               : Picture based subtitle format used on BDs/HD-DVDs
    Duration                    : 2 h 22 min
    Bit rate                    : 21.1 kb/s
    Frame rate                  : 0.264 FPS
    Count of elements           : 2258
    Stream size                 : 21.5 MiB (0%)
    Language                    : Spanish
    Default                     : No
    Forced                      : No

    Menu
    00:00:00.000                : Chapter 01
    00:11:15.800                : Chapter 02
    00:22:10.620                : Chapter 03
    00:30:10.016                : Chapter 04
    00:40:27.007                : Chapter 05
    00:50:23.645                : Chapter 06
    01:01:14.754                : Chapter 07
    01:08:56.090                : Chapter 08
    01:21:43.481                : Chapter 09
    01:34:53.521                : Chapter 10
    01:39:36.428                : Chapter 11
    01:49:37.946                : Chapter 12
    02:01:35.538                : Chapter 13
    02:10:18.894                : Chapter 14

     

  • Peso: 58.6 GiB

Sinopsis

Arthur Curry, también conocido como Aquaman (Jason Momoa), es un habitante de un poderoso reino subacuático que recibe el nombre de la Atlántida. En esta película repleta de acción, aventura, e incluso partes de terror, conoceremos sus orígenes, desde que era un niño criado por un hombre humano y considerado un paria por los suyos, hasta que crece y debe hacer frente a los problemas que han aparecido en su mundo. Entonces, este hombre mitad humano y mitad atlante, emprenderá el viaje de su vida, en el que tendrá que descubrir quién es realmente y si es digno de ser un rey. Acompañado de Mera (Amber Heard), hará frente a este y otros retos, mientras le planta cara a Black Manta (Yahya Abdul-Mateen II) y a su propio hermanastro Orm (Patrick Wilson). ¿Será capaz de dirigir a su pueblo y convertirse en un héroe para el mundo?

 

Latino: AC3 5.1  –  Inglés: E-AC3 7.1 + TrueHD 7.1

Ficha técnica

Video trailer de la película

Enlaces de descarga

Rip de Bluray

Descargar Aquaman (2018) [IMAX] REMUX 4K HDR Latino – CMHDD




Aportes de DPeliculasHDmega la pass es:dpeliculashdmega.org Aportes de CinemaniaHD la pass es:cinemaniahdd.com Aportes recientes:cinemaniahdd.net
Guardado en : Acción , Aventura , Fantasía

Películas relacionadas

descargar Aquaman (2018) [IMAX] REMUX 4K HDR Latino – CMHDD 4K HDR 1080p gratis, Aquaman (2018) [IMAX] REMUX 4K HDR Latino – CMHDD 4K HDR mega 1 link, Aquaman (2018) [IMAX] REMUX 4K HDR Latino – CMHDD 4K HDR pelicula completa, descargar Aquaman (2018) [IMAX] REMUX 4K HDR Latino – CMHDD 4K HDR gratis en mega.

Aquaman (2018) [IMAX] REMUX 4K HDR Latino – CMHDD pelicula full hd, Aquaman (2018) [IMAX] REMUX 4K HDR Latino – CMHDD mega latino, Aquaman (2018) [IMAX] REMUX 4K HDR Latino – CMHDD 4k latino, Aquaman (2018) [IMAX] REMUX 4K HDR Latino – CMHDD pelicula completa, Aquaman (2018) [IMAX] REMUX 4K HDR Latino – CMHDD descargar gratis, descargar Aquaman (2018) [IMAX] REMUX 4K HDR Latino – CMHDD pelicula latino, Aquaman (2018) [IMAX] REMUX 4K HDR Latino – CMHDD 1 link mega, Aquaman (2018) [IMAX] REMUX 4K HDR Latino – CMHDD 1 link google drive, Aquaman (2018) [IMAX] REMUX 4K HDR Latino – CMHDD hd 1080p latino.
Comentarios 0