×

¿Problemas para descargar con Mozilla, EDGE? Deshabilita la opción "Abrir vinculos en una pestaña nueva" tal como lo muestra ésta imagen.

Aquaman (2018) [Open Matte] WEB-DL 1080p Latino

8.047 vistas

Información de Aquaman (2018) [Open Matte] WEB-DL 1080p Latino

Datos de la película

  • Calidad: WEBDL
  • Audio: Se especifica abajo de la Sinopsis
  • Subtitulos: Español Latino SRT- FORZADOS SRT
  • Resolución: 1920X1080
  • Formato: MKV
  • Codec: H.264
  • Encoder: cinemaniahdd
  • Mediainfo: Clic para Mostrar Datos Ver
  • Aquaman (2018) [Open Matte] WEB-DL 1080p Latino.mkv
    Format                      : Matroska
    Format version              : Version 4
    File size                   : 6.00 GiB
    Duration                    : 2 h 23 min
    Overall bit rate            : 5 991 kb/s
    Movie name                  : Aquaman (2018) Open Matte - CinemaniaHDD.Net
    Encoded date                : UTC 2020-09-13 02:27:46
    Writing application         : mkvmerge v46.0.0 ('No Deeper Escape') 64-bit
    Writing library             : libebml v1.3.10 + libmatroska v1.5.2

    Video
    ID                          : 1
    Format                      : AVC
    Format/Info                 : Advanced Video Codec
    Format profile              : High@L4
    Format settings             : CABAC / 4 Ref Frames
    Format settings, CABAC      : Yes
    Format settings, Reference  : 4 frames
    Codec ID                    : V_MPEG4/ISO/AVC
    Duration                    : 2 h 23 min
    Bit rate                    : 4 901 kb/s
    Width                       : 1 920 pixels
    Height                      : 1 080 pixels
    Display aspect ratio        : 16:9
    Frame rate mode             : Constant
    Frame rate                  : 23.976 (24000/1001) FPS
    Color space                 : YUV
    Chroma subsampling          : 4:2:0
    Bit depth                   : 8 bits
    Scan type                   : Progressive
    Bits/(Pixel*Frame)          : 0.099
    Stream size                 : 4.91 GiB (82%)
    Title                       : CinemaniaHDD
    Language                    : English
    Default                     : Yes
    Forced                      : No

    Audio #1
    ID                          : 2
    Format                      : AC-3
    Format/Info                 : Audio Coding 3
    Commercial name             : Dolby Digital
    Codec ID                    : A_AC3
    Duration                    : 2 h 23 min
    Bit rate mode               : Constant
    Bit rate                    : 448 kb/s
    Channel(s)                  : 6 channels
    Channel layout              : L R C LFE Ls Rs
    Sampling rate               : 48.0 kHz
    Frame rate                  : 31.250 FPS (1536 SPF)
    Compression mode            : Lossy
    Stream size                 : 459 MiB (7%)
    Title                       : Español latino [CinemaniaHDD]
    Language                    : Spanish
    Service kind                : Complete Main
    Default                     : Yes
    Forced                      : No

    Audio #2
    ID                          : 3
    Format                      : E-AC-3
    Format/Info                 : Enhanced AC-3
    Commercial name             : Dolby Digital Plus
    Codec ID                    : A_EAC3
    Duration                    : 2 h 23 min
    Bit rate mode               : Constant
    Bit rate                    : 640 kb/s
    Channel(s)                  : 6 channels
    Channel layout              : L R C LFE Ls Rs
    Sampling rate               : 48.0 kHz
    Frame rate                  : 31.250 FPS (1536 SPF)
    Compression mode            : Lossy
    Stream size                 : 656 MiB (11%)
    Title                       : Inglés [CinemaniaHDD]
    Language                    : English
    Service kind                : Complete Main
    Default                     : No
    Forced                      : No

    Text #1
    ID                          : 4
    Format                      : UTF-8
    Codec ID                    : S_TEXT/UTF8
    Codec ID/Info               : UTF-8 Plain Text
    Duration                    : 2 h 14 min
    Bit rate                    : 0 b/s
    Count of elements           : 29
    Stream size                 : 872 Bytes (0%)
    Title                       : Forzados [CinemaniaHDD]
    Language                    : Spanish
    Default                     : Yes
    Forced                      : Yes

    Text #2
    ID                          : 5
    Format                      : UTF-8
    Codec ID                    : S_TEXT/UTF8
    Codec ID/Info               : UTF-8 Plain Text
    Duration                    : 2 h 14 min
    Bit rate                    : 37 b/s
    Count of elements           : 1123
    Stream size                 : 37.4 KiB (0%)
    Title                       : Español latino [CinemaniaHDD]
    Language                    : Spanish
    Default                     : No
    Forced                      : No

    Text #3
    ID                          : 6
    Format                      : UTF-8
    Codec ID                    : S_TEXT/UTF8
    Codec ID/Info               : UTF-8 Plain Text
    Duration                    : 2 h 14 min
    Bit rate                    : 38 b/s
    Count of elements           : 1132
    Stream size                 : 37.5 KiB (0%)
    Title                       : Inglés [CinemaniaHDD]
    Language                    : English
    Default                     : No
    Forced                      : No

    Menu
    00:00:00.000                : en:Chapter 01
    00:11:07.293                : en:Chapter 02
    00:22:09.621                : en:Chapter 03
    00:30:09.017                : en:Chapter 04
    00:40:26.718                : en:Chapter 05
    00:50:22.647                : en:Chapter 06
    01:01:13.756                : en:Chapter 07
    01:08:55.092                : en:Chapter 08
    01:21:39.272                : en:Chapter 09
    01:34:48.436                : en:Chapter 10
    01:39:35.431                : en:Chapter 11
    01:49:30.818                : en:Chapter 12
    02:01:34.541                : en:Chapter 13
    02:10:17.897                : en:Chapter 14

     

  • Peso: 6.00 GiB

Sinopsis

Un icono durante más de 70 años, Aquaman (Jason Momoa) es el Rey de los Siete Mares. Este reacio gobernante de Atlantis se encuentra atrapado entre los constantes estragos causados al mar por los habitantes de la superficie y los atlantes buscando rebelarse. Pese a todo está decidido a proteger el mundo entero.

Español Latino AC3 5.1 BD – Ingles E-AC3 5.1 WEB-DL

 

Ficha técnica

Video trailer de la película

Enlaces de descarga

Rip de Bluray

Descargar Aquaman (2018) [Open Matte] WEB-DL 1080p Latino




Aportes de DPeliculasHDmega la pass es:dpeliculashdmega.org Aportes de CinemaniaHD la pass es:cinemaniahdd.com
Guardado en : Acción , Aventura , Fantasía , OPEN MATTE

Películas relacionadas

  • Shotgun Wedding (2022) AMZN WEB-DL 1080p Latino

    Shotgun Wedding (2022) AMZN WEB-DL 1080p Latino

    2022
    Shotgun Wedding (2022) AMZN WEB-DL 1080p Latino

    1h 41m 2022

    Darcy y Tom reúnen a sus familias para la boda de destino definitiva, pero cuando toman como rehenes...

    Director: Jason Moore

    Género: Acción

    Actores: Steve Coulter

  • Mar de sangre (2022) WEB-DL 1080p Latino

    Mar de sangre (2022) WEB-DL 1080p Latino

    2022
    Mar de sangre (2022) WEB-DL 1080p Latino

    1h 27m 2022

    Descargar Mar de sangre (2022) WEB-DL 1080p Latino. Un grupo de amigos que disfrutan de un fin de semana...

    Director: James Nunn

    Género: Acción

    Actores: Thomas Michael Flynn

  • Noche sin paz (2022) PLACEBO Full HD 1080p Latino

    Noche sin paz (2022) PLACEBO Full HD 1080p Latino

    2022
    Noche sin paz (2022) PLACEBO Full HD 1080p Latino

    1h 41m 2022

    Descargar Noche sin paz (2022) PLACEBO Full HD 1080p Latino. Cuando un equipo de mercenarios irrumpe...

    Director: Tyshana Hobson

    Género: Acción

    Actores: Yoon Cha-Lee

  • Noche sin paz (2022) HD 1080p Latino

    Noche sin paz (2022) HD 1080p Latino

    2022
    Noche sin paz (2022) HD 1080p Latino

    1h 41m 2022

    Descargar Noche sin paz (2022) HD 1080p Latino. Cuando un equipo de mercenarios irrumpe en Nochebuena...

    Director: Tyshana Hobson

    Género: Acción

    Actores: Yoon Cha-Lee

descargar Aquaman (2018) [Open Matte] WEB-DL 1080p Latino WEBDL 1080p gratis, Aquaman (2018) [Open Matte] WEB-DL 1080p Latino WEBDL mega 1 link, Aquaman (2018) [Open Matte] WEB-DL 1080p Latino WEBDL pelicula completa, descargar Aquaman (2018) [Open Matte] WEB-DL 1080p Latino WEBDL gratis en mega.

Aquaman (2018) [Open Matte] WEB-DL 1080p Latino pelicula full hd, Aquaman (2018) [Open Matte] WEB-DL 1080p Latino mega latino, Aquaman (2018) [Open Matte] WEB-DL 1080p Latino 4k latino, Aquaman (2018) [Open Matte] WEB-DL 1080p Latino pelicula completa, Aquaman (2018) [Open Matte] WEB-DL 1080p Latino descargar gratis, descargar Aquaman (2018) [Open Matte] WEB-DL 1080p Latino pelicula latino, Aquaman (2018) [Open Matte] WEB-DL 1080p Latino 1 link mega, Aquaman (2018) [Open Matte] WEB-DL 1080p Latino 1 link google drive, Aquaman (2018) [Open Matte] WEB-DL 1080p Latino hd 1080p latino.
Comentarios 2
  • edwar - 05 marzo, 2019

    gracias pro la pelicula

  • elias - 05 marzo, 2019

    es en la version imax?