Aprendices fuera de línea (2013) Full 1080p Latino

1.036 vistas
1 estrella2 estrellas3 estrellas4 estrellas5 estrellas (2 votos, promedio: 2,00 de 5)
Cargando…

Información de Aprendices fuera de línea (2013) Full 1080p Latino

Datos de la película

  • Calidad: Full 1080p
  • Audio: Español Latino AC3 5.1 BLURAY - Ingles DTS 5.1 BLURAY
  • Subtitulos: Español Latino SRT
  • Resolución: 1920x1080p
  • Formato: MKV
  • Codec: H.264
  • Encoder: Dracarys
  • Mediainfo: Clic para Mostrar Datos Ver
  • Format                                   : Matroska
    Format version                           : Version 4 / Version 2
    File size                                : 5.13 GiB
    Duration                                 : 2 h 5 min
    Overall bit rate                         : 5 869 kb/s
    Movie name                               : CinemaniaHDD.net
    Encoded date                             : UTC 2018-09-13 03:12:27 / UTC 2018-09-11T02:33:45Z
    Writing application                      : mkvmerge v15.0.0 ('Duel with the Devil') 64-bit
    Writing library                          : libebml v1.3.5 + libmatroska v1.4.5 / Lavf57.7.2

    Video
    ID                                       : 1
    Format                                   : AVC
    Format/Info                              : Advanced Video Codec
    Format profile                           : [email protected]
    Format settings                          : CABAC / 4 Ref Frames
    Format settings, CABAC                   : Yes
    Format settings, RefFrames               : 4 frames
    Codec ID                                 : V_MPEG4/ISO/AVC
    Duration                                 : 2 h 5 min
    Bit rate                                 : 3 603 kb/s
    Width                                    : 1 920 pixels
    Height                                   : 1 080 pixels
    Display aspect ratio                     : 16:9
    Frame rate mode                          : Constant
    Frame rate                               : 23.976 (24000/1001) FPS
    Color space                              : YUV
    Chroma subsampling                       : 4:2:0
    Bit depth                                : 8 bits
    Scan type                                : Progressive
    Bits/(Pixel*Frame)                       : 0.072
    Stream size                              : 3.15 GiB (61%)
    Title                                    : Aprendices fuera de línea (2013) Full 1080p Latino
    Writing library                          : x264 core 148 r2708 86b7198
    Encoding settings                        : cabac=1 / ref=4 / deblock=1:0:0 / analyse=0x3:0x133 / me=esa / subme=10 / psy=1 / psy_rd=1.00:0.00 / mixed_ref=1 / me_range=24 / chroma_me=1 / trellis=2 / 8x8dct=1 / cqm=0 / deadzone=21,11 / fast_pskip=1 / chroma_qp_offset=-2 / threads=34 / lookahead_threads=5 / sliced_threads=0 / nr=0 / decimate=1 / interlaced=0 / bluray_compat=0 / constrained_intra=0 / bframes=8 / b_pyramid=2 / b_adapt=2 / b_bias=0 / direct=3 / weightb=1 / open_gop=0 / weightp=2 / keyint=240 / keyint_min=24 / scenecut=40 / intra_refresh=0 / rc_lookahead=60 / rc=crf / mbtree=1 / crf=20.0 / qcomp=0.60 / qpmin=0 / qpmax=69 / qpstep=4 / vbv_maxrate=62500 / vbv_bufsize=78125 / crf_max=0.0 / nal_hrd=none / filler=0 / ip_ratio=1.40 / aq=1:1.00
    Language                                 : English
    Default                                  : Yes
    Forced                                   : No
    Color range                              : Limited
    Color primaries                          : BT.709
    Transfer characteristics                 : BT.709
    Matrix coefficients                      : BT.709
    Statistics Tags Issue                    : mkvmerge v15.0.0 ('Duel with the Devil') 64-bit 2018-09-13 03:12:27 / mkvmerge v15.0.0 ('Duel with the Devil') 64-bit 2018-09-13 03:12:27 / UTC 2018-09-11T02:33:45Z
    FromStats_BitRate                        : 3717625
    FromStats_Duration                       : 02:05:01.494000000
    FromStats_FrameCount                     : 179856
    FromStats_StreamSize                     : 3485967932

    Audio #1
    ID                                       : 2
    Format                                   : AC-3
    Format/Info                              : Audio Coding 3
    Format settings, Endianness              : Big
    Codec ID                                 : A_AC3
    Duration                                 : 2 h 5 min
    Bit rate mode                            : Constant
    Bit rate                                 : 640 kb/s
    Channel(s)                               : 6 channels
    Channel positions                        : Front: L C R, Side: L R, LFE
    Sampling rate                            : 48.0 kHz
    Frame rate                               : 31.250 FPS (1536 SPF)
    Bit depth                                : 16 bits
    Compression mode                         : Lossy
    Stream size                              : 572 MiB (11%)
    Language                                 : Spanish
    Service kind                             : Complete Main
    Default                                  : Yes
    Forced                                   : No
    Statistics Tags Issue                    : mkvmerge v15.0.0 ('Duel with the Devil') 64-bit 2018-09-13 03:12:27 / mkvmerge v15.0.0 ('Duel with the Devil') 64-bit 2018-09-13 03:12:27 / UTC 2018-09-11T02:33:45Z
    FromStats_BitRate                        : 640000
    FromStats_Duration                       : 02:05:01.888000000
    FromStats_FrameCount                     : 234434
    FromStats_StreamSize                     : 600151040

    Audio #2
    ID                                       : 3
    Format                                   : DTS
    Format/Info                              : Digital Theater Systems
    Mode                                     : 16
    Format settings, Endianness              : Big
    Codec ID                                 : A_DTS
    Duration                                 : 2 h 5 min
    Bit rate mode                            : Constant
    Bit rate                                 : 1 509 kb/s
    Channel(s)                               : 6 channels
    Channel positions                        : Front: L C R, Side: L R, LFE
    Sampling rate                            : 48.0 kHz
    Frame rate                               : 93.750 FPS (512 SPF)
    Bit depth                                : 24 bits
    Compression mode                         : Lossy
    Stream size                              : 1.32 GiB (26%)
    Language                                 : English
    Default                                  : No
    Forced                                   : No
    Statistics Tags Issue                    : mkvmerge v15.0.0 ('Duel with the Devil') 64-bit 2018-09-13 03:12:27 / mkvmerge v15.0.0 ('Duel with the Devil') 64-bit 2018-09-13 03:12:27 / UTC 2018-09-11T02:33:45Z
    FromStats_BitRate                        : 1508999
    FromStats_Duration                       : 02:05:01.579000000
    FromStats_FrameCount                     : 703273
    FromStats_StreamSize                     : 1414985276

    Text
    ID                                       : 4
    Format                                   : UTF-8
    Codec ID                                 : S_TEXT/UTF8
    Codec ID/Info                            : UTF-8 Plain Text
    Language                                 : Spanish
    Default                                  : No
    Forced                                   : No
    Statistics Tags Issue                    : mkvmerge v15.0.0 ('Duel with the Devil') 64-bit 2018-09-13 03:12:27 / mkvmerge v15.0.0 ('Duel with the Devil') 64-bit 2018-09-13 03:12:27 / UTC 2018-09-11T02:33:45Z
    FromStats_BitRate                        : 91
    FromStats_Duration                       : 02:00:03.572000000
    FromStats_FrameCount                     : 2046
    FromStats_StreamSize                     : 82017

    Menu
    00:00:00.000                             : :Chapter 1
    00:05:28.036                             : :Chapter 2
    00:07:50.428                             : :Chapter 3
    00:14:21.611                             : :Chapter 4
    00:19:40.429                             : :Chapter 5
    00:25:58.974                             : :Chapter 6
    00:28:59.821                             : :Chapter 7
    00:32:36.955                             : :Chapter 8
    00:35:04.853                             : :Chapter 9
    00:36:19.427                             : :Chapter 10
    00:41:52.093                             : :Chapter 11
    00:44:35.006                             : :Chapter 12
    00:48:04.924                             : :Chapter 13
    00:50:36.909                             : :Chapter 14
    00:58:27.879                             : :Chapter 15
    01:02:17.901                             : :Chapter 16
    01:06:08.631                             : :Chapter 17
    01:11:12.977                             : :Chapter 18
    01:14:02.772                             : :Chapter 19
    01:15:47.043                             : :Chapter 20
    01:18:54.563                             : :Chapter 21
    01:21:27.424                             : :Chapter 22
    01:24:11.463                             : :Chapter 23
    01:26:07.204                             : :Chapter 24
    01:27:57.856                             : :Chapter 25
    01:29:37.622                             : :Chapter 26
    01:31:40.036                             : :Chapter 27
    01:37:15.913                             : :Chapter 28
    01:42:33.105                             : :Chapter 29
    01:48:12.987                             : :Chapter 30
    01:54:18.977                             : :Chapter 31
    01:57:37.425                             : :Chapter 32

  • Peso: 5.13 GiB

Sinopsis

Cuando dos cuarentones vendedores de relojes son despedidos de sus respectivos trabajos, convencidos ambos de que no se han adaptado a los cambios de las nuevas tecnologías, deciden empezar de nuevo y buscar trabajo en la empresa más exitosa de Internet: Google. Finalmente consiguen un contrato de prácticas como becarios. La locura comienza cuando se ven compitiendo para conseguir el puesto con jóvenes veinteañeros, mucho más listos y más familiarizados con el mundo digital que ellos.

Ficha técnica

  • Titulo original: The Internship
  • Fecha de lanzamiento: 07-06-2013 (United States of America)
  • Director: Shawn Levy
  • Género: Comedia, FULL 1080p Plateadas
  • Puntuación: 2.0 2 votos
  • Duración:
    2 h 5 min

Video trailer de la película

Enlaces de descarga

Rip de Bluray

Descargar Aprendices fuera de línea (2013) Full 1080p Latino




Aportes de DPeliculasHDmega la pass es:dpeliculashdmega.org Aportes de CinemaniaHD la pass es:cinemaniahdd.com
Guardado en : Comedia , FULL 1080p Plateadas

Películas relacionadas

  • Swing (2018) WEB-DL 1080p Latino

    2018
    Swing (2018) WEB-DL 1080p Latino

    0.0 1h 44m 2018

    En una noche en la que predomina el alcohol, cuatro amigos deciden intercambiar a sus parejas. Esta decisión...

    Director: Luis Smok

    Género: Comedia

    Actores: Tiago Correa

  • Aquaman (2018) Full HD 1080p Latino

    2018
    Aquaman (2018) Full HD 1080p Latino

    5.0 2h 24m 2018

    Un icono durante más de 70 años, Aquaman (Jason Momoa) es el Rey de los Siete Mares. Este reacio gobernante...

    Director: James Wan

    Género: Acción

    Actores: Yahya Abdul-Mateen II

  • El último Sharknado: Ya era hora (2018) 1080p Latino

    2018
    El último Sharknado: Ya era hora (2018) 1080p Latino

    3.0 1h 30m 2018

    Todo está perdido, ¿o no? Fin desbloquea el poder de viajar en el tiempo a través de los SHARKNADOS...

    Director: Anthony C. Ferrante

    Género: Acción

    Actores: Vivica A. Fox

  • Turn Up Charlie (2019) Temporada 1 NF 1080p Latino

    2019
    Turn Up Charlie (2019) Temporada 1 NF 1080p Latino

    0.0 0h 25m 2019

    Un DJ de mala racha planea reconstruir su carrera musical mientras trabaja como niñera para la salvaje...

    Director: Idris Elba

    Género: Comedia

    Actores: Piper Perabo

Comentarios 0