×

¿Problemas para descargar con Mozilla, EDGE? Deshabilita la opción "Abrir vinculos en una pestaña nueva" tal como lo muestra ésta imagen.

Apollo 13 (1995) REMUX 4K HDR Latino – CMHDD

210 vistas

Información de Apollo 13 (1995) REMUX 4K HDR Latino – CMHDD

Datos de la película

  • Calidad: 4K HDR
  • Audio: Español Latino DTS 5.1 BLURAY - Ingles DTS-HD Master 7.1 BLURAY
  • Subtitulos: Español Latino PGS
  • Resolución: 3840x2160p
  • Formato: MKV
  • Codec: H.264
  • Encoder: Dracarys
  • Mediainfo: Clic para Mostrar Datos Ver
  • Format                      : Matroska
    Format version              : Version 4
    File size                   : 43.9 GiB
    Duration                    : 2 h 19 min
    Overall bit rate mode       : Variable
    Overall bit rate            : 45.0 Mb/s
    Movie name                  : Apollo 13 (1995) REMUX 4K HDR Latino - CMHDD
    Encoded date                : UTC 2021-05-15 08:03:05
    Writing application         : mkvmerge v56.1.0 ('My Friend') 64-bit
    Writing library             : libebml v1.4.2 + libmatroska v1.6.4
    Cover                       : Yes
    Attachments                 : cover.jpg

    Video
    ID                          : 1
    ID in the original source m : 4113 (0x1011)
    Format                      : HEVC
    Format/Info                 : High Efficiency Video Coding
    Format profile              : Main 10@L5.1@High
    HDR format                  : SMPTE ST 2086, HDR10 compatible
    Codec ID                    : V_MPEGH/ISO/HEVC
    Duration                    : 2 h 19 min
    Bit rate                    : 36.9 Mb/s
    Width                       : 3 840 pixels
    Height                      : 2 160 pixels
    Display aspect ratio        : 16:9
    Frame rate mode             : Constant
    Frame rate                  : 23.976 (24000/1001) FPS
    Color space                 : YUV
    Chroma subsampling          : 4:2:0 (Type 2)
    Bit depth                   : 10 bits
    Bits/(Pixel*Frame)          : 0.186
    Stream size                 : 36.1 GiB (82%)
    Writing library             : ATEME Titan File 3.8.3 (4.8.3.0)        
    Default                     : Yes
    Forced                      : No
    Color range                 : Limited
    Color primaries             : BT.2020
    Transfer characteristics    : PQ
    Matrix coefficients         : BT.2020 non-constant
    Mastering display color pri : Display P3
    Mastering display luminance : min: 0.0050 cd/m2, max: 1000 cd/m2
    Maximum Content Light Level : 1000 cd/m2
    Maximum Frame-Average Light : 293 cd/m2
    Original source medium      : Blu-ray

    Audio #1
    ID                          : 2
    ID in the original source m : 4352 (0x1100)
    Format                      : DTS XLL X
    Format/Info                 : Digital Theater Systems
    Commercial name             : DTS-HD Master Audio
    Codec ID                    : A_DTS
    Duration                    : 2 h 19 min
    Bit rate mode               : Variable
    Bit rate                    : 7 248 kb/s
    Channel(s)                  : 8 channels
    Channel(s)_Original         : Object Based
    ChannelLayout_Original      : Object Based
    Sampling rate               : 48.0 kHz
    Frame rate                  : 93.750 FPS (512 SPF)
    Bit depth                   : 24 bits
    Stream size                 : 7.08 GiB (16%)
    Language                    : English
    Default                     : No
    Forced                      : No
    Original source medium      : Blu-ray

    Audio #2
    ID                          : 3
    ID in the original source m : 4354 (0x1102)
    Format                      : DTS
    Format/Info                 : Digital Theater Systems
    Codec ID                    : A_DTS
    Duration                    : 2 h 19 min
    Bit rate mode               : Constant
    Bit rate                    : 768 kb/s
    Channel(s)                  : 6 channels
    Channel layout              : C L R Ls Rs LFE
    Sampling rate               : 48.0 kHz
    Frame rate                  : 93.750 FPS (512 SPF)
    Bit depth                   : 24 bits
    Compression mode            : Lossy
    Stream size                 : 768 MiB (2%)
    Language                    : Spanish
    Default                     : Yes
    Forced                      : No
    Original source medium      : Blu-ray

    Text #1
    ID                          : 4
    ID in the original source m : 4770 (0x12A2)
    Format                      : PGS
    Muxing mode                 : zlib
    Codec ID                    : S_HDMV/PGS
    Codec ID/Info               : Picture based subtitle format used on BDs/HD-DVDs
    Duration                    : 2 h 13 min
    Bit rate                    : 49.9 kb/s
    Count of elements           : 3696
    Stream size                 : 47.6 MiB (0%)
    Language                    : Spanish
    Default                     : No
    Forced                      : No
    Original source medium      : Blu-ray

    Text #2
    ID                          : 5
    ID in the original source m : 4778 (0x12AA)
    Format                      : PGS
    Muxing mode                 : zlib
    Codec ID                    : S_HDMV/PGS
    Codec ID/Info               : Picture based subtitle format used on BDs/HD-DVDs
    Duration                    : 2 h 13 min
    Bit rate                    : 956 b/s
    Count of elements           : 92
    Stream size                 : 934 KiB (0%)
    Language                    : Spanish
    Default                     : No
    Forced                      : No
    Original source medium      : Blu-ray

    Menu
    00:00:00.000                : Chapter 01
    00:09:39.120                : Chapter 02
    00:19:49.354                : Chapter 03
    00:34:21.851                : Chapter 04
    00:45:15.337                : Chapter 05
    00:49:38.183                : Chapter 06
    01:01:59.674                : Chapter 07
    01:05:52.657                : Chapter 08
    01:10:05.451                : Chapter 09
    01:15:08.045                : Chapter 10
    01:17:08.040                : Chapter 11
    01:19:41.610                : Chapter 12
    01:35:12.581                : Chapter 13
    01:39:11.153                : Chapter 14
    01:48:21.495                : Chapter 15
    01:56:39.617                : Chapter 16
    01:58:49.914                : Chapter 17
    02:05:18.093                : Chapter 18
    02:09:07.156                : Chapter 19
    02:14:06.038                : Chapter 20

  • Peso: 43.9 GiB

Sinopsis

El Apolo 13 inicia su viaje a la luna en abril de 1970. Cuando la tripulación está a punto de llegar a su destino, una explosión en el espacio les hace perder oxígeno, energía y el curso de la nave… Todo se convierte en una situación desesperada para los tres hombres tripulantes, especialmente cuando el oxígeno amenaza con agotarse. Mientras, el mundo entero, que apenas un año antes conoció la gloria de la aventura espacial cuando el hombre pisó la luna, contiene la respiración a la espera de ver cómo acaba tan angustiosa espera.

Ficha técnica

Video trailer de la película

Enlaces de descarga

Rip de Bluray

Descargar Apollo 13 (1995) REMUX 4K HDR Latino – CMHDD


Aportes de DPeliculasHDmega la pass es:dpeliculashdmega.org Aportes de CinemaniaHD la pass es:cinemaniahdd.com
Guardado en : Drama , Historia

Películas relacionadas

descargar Apollo 13 (1995) REMUX 4K HDR Latino – CMHDD 4K HDR 1080p gratis, Apollo 13 (1995) REMUX 4K HDR Latino – CMHDD 4K HDR mega 1 link, Apollo 13 (1995) REMUX 4K HDR Latino – CMHDD 4K HDR pelicula completa, descargar Apollo 13 (1995) REMUX 4K HDR Latino – CMHDD 4K HDR gratis en mega.

Apollo 13 (1995) REMUX 4K HDR Latino – CMHDD pelicula full hd, Apollo 13 (1995) REMUX 4K HDR Latino – CMHDD mega latino, Apollo 13 (1995) REMUX 4K HDR Latino – CMHDD 4k latino, Apollo 13 (1995) REMUX 4K HDR Latino – CMHDD pelicula completa, Apollo 13 (1995) REMUX 4K HDR Latino – CMHDD descargar gratis, descargar Apollo 13 (1995) REMUX 4K HDR Latino – CMHDD pelicula latino, Apollo 13 (1995) REMUX 4K HDR Latino – CMHDD 1 link mega, Apollo 13 (1995) REMUX 4K HDR Latino – CMHDD 1 link google drive, Apollo 13 (1995) REMUX 4K HDR Latino – CMHDD hd 1080p latino.
Comentarios 0