×

¿Problemas para descargar con Mozilla, EDGE? Deshabilita la opción "Abrir vinculos en una pestaña nueva" tal como lo muestra ésta imagen.

La Liga de la Justicia Oscura: Apokolips War (2020) HD 1080p Latino

492 vistas

Información de La Liga de la Justicia Oscura: Apokolips War (2020) HD 1080p Latino

Datos de la película

  • Calidad: 1080p
  • Audio: Español Latino AC3 2.0 BLURAY - Ingles AC3 5.1 BLURAY
  • Subtitulos: Español Latino SRT - Ingles SRT
  • Resolución: 1920x1080p
  • Formato: MKV
  • Codec: H.264
  • Encoder: Melkor
  • Mediainfo: Clic para Mostrar Datos Ver
  • JL Dark Guerra Apokolips (2020) 1080p Latino.mkv
    Format                      : Matroska
    Format version              : Version 4
    File size                   : 2.75 GiB
    Duration                    : 1 h 30 min
    Overall bit rate            : 4 371 kb/s
    Movie name                  : JLD - Apokolips War (2020) CinemaniaHDD.Net
    Encoded date                : UTC 2020-05-17 06:29:38
    Writing application         : mkvmerge v46.0.0 ('No Deeper Escape') 64-bit
    Writing library             : libebml v1.3.10 + libmatroska v1.5.2
    Attachments                 : CINEMANIAHD.png

    Video
    ID                          : 1
    Format                      : AVC
    Format/Info                 : Advanced Video Codec
    Format profile              : High@L4.1
    Format settings             : CABAC / 4 Ref Frames
    Format settings, CABAC      : Yes
    Format settings, Reference  : 4 frames
    Codec ID                    : V_MPEG4/ISO/AVC
    Duration                    : 1 h 30 min
    Bit rate                    : 3 500 kb/s
    Width                       : 1 920 pixels
    Height                      : 1 080 pixels
    Display aspect ratio        : 16:9
    Frame rate mode             : Constant
    Frame rate                  : 23.976 (24000/1001) FPS
    Color space                 : YUV
    Chroma subsampling          : 4:2:0
    Bit depth                   : 8 bits
    Scan type                   : Progressive
    Bits/(Pixel*Frame)          : 0.070
    Stream size                 : 2.23 GiB (81%)
    Title                       : HD1080p [CinemaniaHDD]
    Writing library             : x264 core 157 r2935 545de2f
    Encoding settings           : cabac=1 / ref=4 / deblock=1:1:1 / analyse=0x3:0x113 / me=hex / subme=8 / psy=1 / psy_rd=0.40:0.00 / mixed_ref=1 / me_range=16 / chroma_me=1 / trellis=2 / 8x8dct=1 / cqm=0 / deadzone=21,11 / fast_pskip=1 / chroma_qp_offset=-2 / threads=24 / lookahead_threads=4 / sliced_threads=0 / nr=0 / decimate=1 / interlaced=0 / bluray_compat=0 / constrained_intra=0 / bframes=5 / b_pyramid=2 / b_adapt=1 / b_bias=0 / direct=3 / weightb=1 / open_gop=0 / weightp=2 / keyint=240 / keyint_min=24 / scenecut=40 / intra_refresh=0 / rc_lookahead=50 / rc=abr / mbtree=1 / bitrate=3500 / ratetol=1.0 / qcomp=0.60 / qpmin=0 / qpmax=69 / qpstep=4 / vbv_maxrate=62500 / vbv_bufsize=78125 / nal_hrd=none / filler=0 / ip_ratio=1.40 / aq=1:0.60
    Default                     : Yes
    Forced                      : No
    Color range                 : Limited
    Color primaries             : BT.709
    Transfer characteristics    : BT.709
    Matrix coefficients         : BT.709

    Audio #1
    ID                          : 2
    Format                      : AC-3
    Format/Info                 : Audio Coding 3
    Commercial name             : Dolby Digital
    Codec ID                    : A_AC3
    Duration                    : 1 h 30 min
    Bit rate mode               : Constant
    Bit rate                    : 192 kb/s
    Channel(s)                  : 2 channels
    Channel layout              : L R
    Sampling rate               : 48.0 kHz
    Frame rate                  : 31.250 FPS (1536 SPF)
    Compression mode            : Lossy
    Stream size                 : 124 MiB (4%)
    Title                       : Español Latino [CinemaniaHDD]
    Language                    : Spanish
    Service kind                : Complete Main
    Default                     : Yes
    Forced                      : No

    Audio #2
    ID                          : 3
    Format                      : AC-3
    Format/Info                 : Audio Coding 3
    Commercial name             : Dolby Digital
    Codec ID                    : A_AC3
    Duration                    : 1 h 30 min
    Bit rate mode               : Constant
    Bit rate                    : 640 kb/s
    Channel(s)                  : 6 channels
    Channel layout              : L R C LFE Ls Rs
    Sampling rate               : 48.0 kHz
    Frame rate                  : 31.250 FPS (1536 SPF)
    Compression mode            : Lossy
    Delay relative to video     : -5 ms
    Stream size                 : 413 MiB (15%)
    Title                       : Ingles [CinemaniaHDD]
    Language                    : English
    Service kind                : Complete Main
    Default                     : No
    Forced                      : No

    Text #1
    ID                          : 4
    Format                      : UTF-8
    Codec ID                    : S_TEXT/UTF8
    Codec ID/Info               : UTF-8 Plain Text
    Duration                    : 28 min 14 s
    Bit rate                    : 0 b/s
    Count of elements           : 5
    Stream size                 : 181 Bytes (0%)
    Title                       : Forzados-SRT [CinemaniaHDD]
    Language                    : Spanish
    Default                     : Yes
    Forced                      : No

    Text #2
    ID                          : 5
    Format                      : UTF-8
    Codec ID                    : S_TEXT/UTF8
    Codec ID/Info               : UTF-8 Plain Text
    Duration                    : 1 h 24 min
    Bit rate                    : 49 b/s
    Count of elements           : 988
    Stream size                 : 30.6 KiB (0%)
    Title                       : Español-SRT [CinemaniaHDD]
    Language                    : Spanish
    Default                     : No
    Forced                      : No

    Text #3
    ID                          : 6
    Format                      : UTF-8
    Codec ID                    : S_TEXT/UTF8
    Codec ID/Info               : UTF-8 Plain Text
    Duration                    : 1 h 25 min
    Bit rate                    : 45 b/s
    Count of elements           : 1006
    Stream size                 : 28.6 KiB (0%)
    Title                       : Ingles-SRT [CinemaniaHDD]
    Language                    : English
    Default                     : No
    Forced                      : No

    Menu
    00:00:00.000                : :Chapter 1
    00:08:31.011                : :Chapter 2
    00:17:35.096                : :Chapter 3
    00:27:06.625                : :Chapter 4
    00:35:31.171                : :Chapter 5
    00:44:35.673                : :Chapter 6
    00:53:16.110                : :Chapter 7
    01:01:53.877                : :Chapter 8
    01:08:14.424                : :Chapter 9
    01:17:38.320                : :Chapter 10
    01:26:55.168                : :Chapter 11

  • Peso: 2.75 GiB

Sinopsis

Descargar La Liga de la Justicia Oscura: Apokolips War (2020) HD 1080p Latino. Culminando seis años de una aventura que comenzó con el lanzamiento de Justice League: War en 2014, Justice League Dark: Apokolips War presenta un planeta Tierra totalmente devastado por el tirano intergaláctico Darkseid en el que los superhéroes apenas han podido hacer frente a la guerra. Los últimos bastiones de guerreros que aún quedan en pie deben reagruparse para crear una estrategia que les permita enfrentarse a Darkseid con el propósito de salvar al planeta y a sus pocos supervivientes. Esta es la guerra que acabará con todas las guerras.

Ficha técnica

Video trailer de la película

Enlaces de descarga

Rip de Bluray

Descargar La Liga de la Justicia Oscura: Apokolips War (2020) HD 1080p Latino




Aportes de DPeliculasHDmega la pass es:dpeliculashdmega.org Aportes de CinemaniaHD la pass es:cinemaniahdd.com

Películas relacionadas

  • La familia Monster (2022) HD 1080p Latino

    La familia Monster (2022) HD 1080p Latino

    2022
    La familia Monster (2022) HD 1080p Latino

    1h 49m 2022

    Descargar La familia Monster (2022) HD 1080p Latino. Reboot de "The Munsters", que sigue las desventuras...

    Director: Rob Zombie

    Género: Comedia

    Actores: Tomas Boykin

  • La familia Monster (2022) REMUX 1080p Latino

    La familia Monster (2022) REMUX 1080p Latino

    2022
    La familia Monster (2022) REMUX 1080p Latino

    1h 49m 2022

    Descargar La familia Monster (2022) REMUX 1080p Latino. Reboot de "The Munsters", que sigue las desventuras...

    Director: Rob Zombie

    Género: Comedia

    Actores: Tomas Boykin

  • Taken 3 (2014) UNRATED REMUX 1080p Latino – CMHDD

    Taken 3 (2014) UNRATED REMUX 1080p Latino – CMHDD

    2014
    Taken 3 (2014) UNRATED REMUX 1080p Latino – CMHDD

    1h 49m 2014

    Tercera entrega de la trilogía iniciada en 2008 con 'Venganza' y que cuenta con una secuela en 2012...

    Director: Winter Goury du Roslan

    Género: Acción

    Actores: Wallace Langham

descargar La Liga de la Justicia Oscura: Apokolips War (2020) HD 1080p Latino 1080p 1080p gratis, La Liga de la Justicia Oscura: Apokolips War (2020) HD 1080p Latino 1080p mega 1 link, La Liga de la Justicia Oscura: Apokolips War (2020) HD 1080p Latino 1080p pelicula completa, descargar La Liga de la Justicia Oscura: Apokolips War (2020) HD 1080p Latino 1080p gratis en mega.

La Liga de la Justicia Oscura: Apokolips War (2020) HD 1080p Latino pelicula full hd, La Liga de la Justicia Oscura: Apokolips War (2020) HD 1080p Latino mega latino, La Liga de la Justicia Oscura: Apokolips War (2020) HD 1080p Latino 4k latino, La Liga de la Justicia Oscura: Apokolips War (2020) HD 1080p Latino pelicula completa, La Liga de la Justicia Oscura: Apokolips War (2020) HD 1080p Latino descargar gratis, descargar La Liga de la Justicia Oscura: Apokolips War (2020) HD 1080p Latino pelicula latino, La Liga de la Justicia Oscura: Apokolips War (2020) HD 1080p Latino 1 link mega, La Liga de la Justicia Oscura: Apokolips War (2020) HD 1080p Latino 1 link google drive, La Liga de la Justicia Oscura: Apokolips War (2020) HD 1080p Latino hd 1080p latino.
Comentarios 0