La Liga de la Justicia Oscura: Apokolips War (2020) 4K UHD HDR Latino

18 vistas
1 estrella2 estrellas3 estrellas4 estrellas5 estrellas (Ninguna valoración todavía)
Cargando…

Información de La Liga de la Justicia Oscura: Apokolips War (2020) 4K UHD HDR Latino

Datos de la película

  • Calidad: 4K HDR
  • Audio: Español Latino AC3 2.0 BLURAY - Ingles DTS 5.1 BLURAY
  • Subtitulos: Español Latino PGS - Ingles PGS
  • Resolución: 3840x2160p
  • Formato: MKV
  • Codec: HEVC
  • Encoder: CinefiloCool
  • Mediainfo: Clic para Mostrar Datos Ver
  • JL Dark Guerra Apokolips (2020) UHD HDR Latino-CMHDD.mkv
    Format                      : Matroska
    Format version              : Version 4
    File size                   : 3.06 GiB
    Duration                    : 1 h 30 min
    Overall bit rate            : 4 863 kb/s
    Movie name                  : JLD - Apokolips War (2020) CinemaniaHDD.Net
    Encoded date                : UTC 2020-06-27 00:10:48
    Writing application         : mkvmerge v46.0.0 ('No Deeper Escape') 64-bit
    Writing library             : libebml v1.3.10 + libmatroska v1.5.2
    Attachments                 : CINEMANIAHD.png

    Video
    ID                          : 1
    Format                      : HEVC
    Format/Info                 : High Efficiency Video Coding
    Format profile              : Main 10@L5.1@High
    HDR format                  : SMPTE ST 2086, HDR10 compatible
    Codec ID                    : V_MPEGH/ISO/HEVC
    Duration                    : 1 h 30 min
    Bit rate                    : 3 141 kb/s
    Width                       : 3 840 pixels
    Height                      : 2 160 pixels
    Display aspect ratio        : 16:9
    Frame rate mode             : Constant
    Frame rate                  : 23.976 (24000/1001) FPS
    Color space                 : YUV
    Chroma subsampling          : 4:2:0 (Type 2)
    Bit depth                   : 10 bits
    Bits/(Pixel*Frame)          : 0.016
    Stream size                 : 1.98 GiB (65%)
    Title                       : 2160p HDR [Bluray]
    Writing library             : x265 3.3+21-6bb2d88029c2:[Windows][GCC 10.0.1][64 bit] 10bit
    Encoding settings           : cpuid=1176575 / frame-threads=6 / numa-pools=36 / wpp / no-pmode / no-pme / no-psnr / no-ssim / log-level=2 / input-csp=1 / input-res=3840x2160 / interlace=0 / total-frames=129726 / level-idc=51 / high-tier=1 / uhd-bd=0 / ref=4 / no-allow-non-conformance / repeat-headers / annexb / aud / hrd / info / hash=0 / no-temporal-layers / open-gop / min-keyint=23 / keyint=250 / gop-lookahead=0 / bframes=6 / b-adapt=2 / b-pyramid / bframe-bias=0 / rc-lookahead=25 / lookahead-slices=4 / scenecut=40 / hist-scenecut=0 / radl=0 / no-splice / no-intra-refresh / ctu=64 / min-cu-size=8 / rect / no-amp / max-tu-size=32 / tu-inter-depth=1 / tu-intra-depth=1 / limit-tu=0 / rdoq-level=2 / dynamic-rd=0.00 / no-ssim-rd / signhide / no-tskip / nr-intra=0 / nr-inter=0 / no-constrained-intra / strong-intra-smoothing / max-merge=3 / limit-refs=3 / limit-modes / me=3 / subme=3 / merange=57 / temporal-mvp / no-frame-dup / no-hme / weightp / no-weightb / no-analyze-src-pics / deblock=1:1 / no-sao / no-sao-non-deblock / rd=4 / selective-sao=0 / no-early-skip / rskip / no-fast-intra / no-tskip-fast / no-cu-lossless / no-b-intra / no-splitrd-skip / rdpenalty=0 / psy-rd=0.40 / psy-rdoq=1.00 / no-rd-refine / no-lossless / cbqpoffs=0 / crqpoffs=0 / rc=crf / crf=14.0 / qcomp=0.60 / qpstep=4 / stats-write=0 / stats-read=0 / vbv-maxrate=160000 / vbv-bufsize=160000 / vbv-init=0.9 / crf-max=0.0 / crf-min=0.0 / ipratio=1.40 / pbratio=1.30 / aq-mode=2 / aq-strength=0.40 / cutree / zone-count=0 / no-strict-cbr / qg-size=32 / no-rc-grain / qpmax=69 / qpmin=0 / no-const-vbv / sar=1 / overscan=0 / videoformat=5 / range=0 / colorprim=9 / transfer=16 / colormatrix=9 / chromaloc=1 / chromaloc-top=2 / chromaloc-bottom=2 / display-window=0 / master-display=G(13250,34500)B(7500,3000)R(34000,16000)WP(15635,16450)L(40000000,50) / cll=343,106 / min-luma=0 / max-luma=1023 / log2-max-poc-lsb=8 / vui-timing-info / vui-hrd-info / slices=1 / no-opt-qp-pps / no-opt-ref-list-length-pps / no-multi-pass-opt-rps / scenecut-bias=0.05 / hist-threshold=0.01 / no-opt-cu-delta-qp / no-aq-motion / hdr10 / hdr10-opt / no-dhdr10-opt / no-idr-recovery-sei / analysis-reuse-level=0 / analysis-save-reuse-level=0 / analysis-load-reuse-level=0 / scale-factor=0 / refine-intra=0 / refine-inter=0 / refine-mv=1 / refine-ctu-distortion=0 / no-limit-sao / ctu-info=0 / no-lowpass-dct / refine-analysis-type=0 / copy-pic=1 / max-ausize-factor=1.0 / no-dynamic-refine / no-single-sei / no-hevc-aq / no-svt / no-field / qp-adaptation-range=1.00 / no-scenecut-aware-qpconformance-window-offsets / right=0 / bottom=0 / decoder-max-rate=0
    Default                     : Yes
    Forced                      : No
    Color range                 : Limited
    Color primaries             : BT.2020
    Transfer characteristics    : PQ
    Matrix coefficients         : BT.2020 non-constant
    Mastering display color pri : Display P3
    Mastering display luminance : min: 0.0050 cd/m2, max: 4000 cd/m2
    Maximum Content Light Level : 343 cd/m2
    Maximum Frame-Average Light : 106 cd/m2

    Audio #1
    ID                          : 2
    ID in the original source m : 4354 (0x1102)
    Format                      : AC-3
    Format/Info                 : Audio Coding 3
    Commercial name             : Dolby Digital
    Codec ID                    : A_AC3
    Duration                    : 1 h 30 min
    Bit rate mode               : Constant
    Bit rate                    : 192 kb/s
    Channel(s)                  : 2 channels
    Channel layout              : L R
    Sampling rate               : 48.0 kHz
    Frame rate                  : 31.250 FPS (1536 SPF)
    Compression mode            : Lossy
    Stream size                 : 124 MiB (4%)
    Title                       : Español Latino [CinemaniaHDD]
    Language                    : Spanish
    Service kind                : Complete Main
    Default                     : Yes
    Forced                      : No
    Original source medium      : Blu-ray

    Audio #2
    ID                          : 3
    Format                      : DTS
    Format/Info                 : Digital Theater Systems
    Codec ID                    : A_DTS
    Duration                    : 1 h 30 min
    Bit rate mode               : Constant
    Bit rate                    : 1 509 kb/s
    Channel(s)                  : 6 channels
    Channel layout              : C L R Ls Rs LFE
    Sampling rate               : 48.0 kHz
    Frame rate                  : 93.750 FPS (512 SPF)
    Bit depth                   : 24 bits
    Compression mode            : Lossy
    Stream size                 : 973 MiB (31%)
    Title                       : Ingles [CinemaniaHDD]
    Language                    : English
    Default                     : No
    Forced                      : No

    Text #1
    ID                          : 4
    Format                      : PGS
    Muxing mode                 : zlib
    Codec ID                    : S_HDMV/PGS
    Codec ID/Info               : Picture based subtitle format used on BDs/HD-DVDs
    Duration                    : 1 h 29 min
    Bit rate                    : 27.9 kb/s
    Count of elements           : 1978
    Stream size                 : 17.8 MiB (1%)
    Title                       : Sub_Esp [PGS]
    Language                    : Spanish
    Default                     : No
    Forced                      : No

    Text #2
    ID                          : 5
    Format                      : PGS
    Muxing mode                 : zlib
    Codec ID                    : S_HDMV/PGS
    Codec ID/Info               : Picture based subtitle format used on BDs/HD-DVDs
    Duration                    : 1 h 25 min
    Bit rate                    : 32.6 kb/s
    Count of elements           : 2490
    Stream size                 : 19.9 MiB (1%)
    Title                       : Sub_Eng [PGS]
    Language                    : English
    Default                     : No
    Forced                      : No

    Text #3
    ID                          : 6
    Format                      : UTF-8
    Codec ID                    : S_TEXT/UTF8
    Codec ID/Info               : UTF-8 Plain Text
    Duration                    : 28 min 14 s
    Bit rate                    : 0 b/s
    Count of elements           : 5
    Stream size                 : 181 Bytes (0%)
    Title                       : Sub_Forzados
    Language                    : Spanish
    Default                     : Yes
    Forced                      : No

    Text #4
    ID                          : 7
    Format                      : UTF-8
    Codec ID                    : S_TEXT/UTF8
    Codec ID/Info               : UTF-8 Plain Text
    Duration                    : 1 h 24 min
    Bit rate                    : 49 b/s
    Count of elements           : 988
    Stream size                 : 30.6 KiB (0%)
    Title                       : Sub_Esp
    Language                    : Spanish
    Default                     : No
    Forced                      : No

    Menu
    00:00:00.000                : en:Chapter 01
    00:08:30.885                : en:Chapter 02
    00:17:35.096                : en:Chapter 03
    00:27:06.625                : en:Chapter 04
    00:35:31.171                : en:Chapter 05
    00:44:35.673                : en:Chapter 06
    00:53:16.110                : en:Chapter 07
    01:01:53.668                : en:Chapter 08
    01:08:14.340                : en:Chapter 09
    01:17:38.195                : en:Chapter 10
    01:26:55.043                : en:Chapter 11

  • Peso: 3.06 GiB

Sinopsis

Descargar La Liga de la Justicia Oscura: Apokolips War (2020) 4K UHD HDR Latino. Culminando seis años de una aventura que comenzó con el lanzamiento de Justice League: War en 2014, Justice League Dark: Apokolips War presenta un planeta Tierra totalmente devastado por el tirano intergaláctico Darkseid en el que los superhéroes apenas han podido hacer frente a la guerra. Los últimos bastiones de guerreros que aún quedan en pie deben reagruparse para crear una estrategia que les permita enfrentarse a Darkseid con el propósito de salvar al planeta y a sus pocos supervivientes. Esta es la guerra que acabará con todas las guerras.

Ficha técnica

Video trailer de la película

Enlaces de descarga

Rip de Bluray

Descargar La Liga de la Justicia Oscura: Apokolips War (2020) 4K UHD HDR Latino




Aportes de DPeliculasHDmega la pass es:dpeliculashdmega.org Aportes de CinemaniaHD la pass es:cinemaniahdd.com

Películas relacionadas

  • Días De Trueno (1990) 4K UHD HDR Latino

    Días De Trueno (1990) 4K UHD HDR Latino

    1990
    Días De Trueno (1990) 4K UHD HDR Latino

    0.0 1h 47m 1990

    Descargar Días De Trueno (1990) 4K UHD HDR Latino. Cole Trickle es un joven temerario que busca en la...

    Director: Tony Scott

    Género: 4K HDR

    Actores: Tom Cruise

  • Días De Trueno (1990) 1080p Latino

    Días De Trueno (1990) 1080p Latino

    1990
    Días De Trueno (1990) 1080p Latino

    0.0 1h 47m 1990

    Descargar Días De Trueno (1990) 1080p Latino. Cole Trickle es un joven temerario que busca en la emoción...

    Director: Tony Scott

    Género: Acción

    Actores: Tom Cruise

  • Días De Trueno (1990) Full HD 1080p Latino

    Días De Trueno (1990) Full HD 1080p Latino

    1990
    Días De Trueno (1990) Full HD 1080p Latino

    0.0 1h 47m 1990

    Descargar Días De Trueno (1990) Full HD 1080p Latino. Cole Trickle es un joven temerario que busca en...

    Director: Tony Scott

    Género: Acción

    Actores: Tom Cruise

  • Días De Trueno (1990) REMUX 1080p Latino

    Días De Trueno (1990) REMUX 1080p Latino

    1990
    Días De Trueno (1990) REMUX 1080p Latino

    0.0 1h 47m 1990

    Descargar Días De Trueno (1990) REMUX 1080p Latino. Cole Trickle es un joven temerario que busca en...

    Director: Tony Scott

    Género: Acción

    Actores: Tom Cruise

  • Trolls (2016) 4K UHD HDR Latino

    Trolls (2016) 4K UHD HDR Latino

    2016
    Trolls (2016) 4K UHD HDR Latino

    0.0 1h 35m 2016

    Descargar Trolls (2016) 4K UHD HDR Latino. Adorable y amable, a los trolls les encanta jugar. Pero un...

    Director: Walt Dohrn

    Género: 4K HDR

    Actores: Zooey Deschanel

Comentarios 0