×

¿Problemas para descargar con Mozilla, EDGE? Deshabilita la opción "Abrir vinculos en una pestaña nueva" tal como lo muestra ésta imagen.

Apocalypto (2006) REMUX 1080p Sub-CMHDD

228 vistas

Información de Apocalypto (2006) REMUX 1080p Sub-CMHDD

Datos de la película

  • Calidad: Full 1080p
  • Audio: Se especifica abajo de la Sinopsis
  • Subtitulos: Español Latino PGS - Ingles PGS
  • Resolución: 1920x1080p
  • Formato: MKV
  • Codec: H.264
  • Encoder: CinefiloCool
  • Mediainfo: Clic para Mostrar Datos Ver
  • Apocalypto.2006.Bluray.REMUX.1080p.AVC.DTS-HD.MA.5.1-CC@CMHDD.mkv
    Format                      : Matroska
    Format version              : Version 4
    File size                   : 33.1 GiB
    Duration                    : 2 h 18 min
    Overall bit rate mode       : Variable
    Overall bit rate            : 34.3 Mb/s
    Movie name                  : Apocalypto (2006) CinemaniaHDD.Net
    Encoded date                : UTC 2023-12-07 04:05:38
    Writing application         : mkvmerge v56.1.0 ('My Friend') 64-bit
    Writing library             : libebml v1.4.2 + libmatroska v1.6.4
    Attachments                 : CINEMANIAHD.png

    Video
    ID                          : 1
    Format                      : AVC
    Format/Info                 : Advanced Video Codec
    Format profile              : High@L4.1
    Format settings             : CABAC / 4 Ref Frames
    Format settings, CABAC      : Yes
    Format settings, Reference  : 4 frames
    Codec ID                    : V_MPEG4/ISO/AVC
    Duration                    : 2 h 17 min
    Bit rate mode               : Variable
    Bit rate                    : 30.0 Mb/s
    Maximum bit rate            : 37.0 Mb/s
    Width                       : 1 920 pixels
    Height                      : 1 080 pixels
    Display aspect ratio        : 16:9
    Frame rate mode             : Constant
    Frame rate                  : 23.976 (24000/1001) FPS
    Color space                 : YUV
    Chroma subsampling          : 4:2:0
    Bit depth                   : 8 bits
    Scan type                   : Progressive
    Bits/(Pixel*Frame)          : 0.603
    Stream size                 : 28.9 GiB (87%)
    Title                       : REMUX HD1080p [CinemaniaHDD]
    Default                     : Yes
    Forced                      : Yes

    Audio
    ID                          : 2
    Format                      : DTS XLL
    Format/Info                 : Digital Theater Systems
    Commercial name             : DTS-HD Master Audio
    Codec ID                    : A_DTS
    Duration                    : 2 h 18 min
    Bit rate mode               : Variable
    Bit rate                    : 4 398 kb/s
    Channel(s)                  : 6 channels
    Channel layout              : C L R Ls Rs LFE
    Sampling rate               : 48.0 kHz
    Frame rate                  : 93.750 FPS (512 SPF)
    Bit depth                   : 24 bits
    Compression mode            : Lossless
    Delay relative to video     : 7 ms
    Stream size                 : 4.24 GiB (13%)
    Title                       : Maya [CinemaniaHDD]
    Language                    : English
    Default                     : Yes
    Forced                      : Yes

    Text #1
    ID                          : 3
    Format                      : PGS
    Muxing mode                 : zlib
    Codec ID                    : S_HDMV/PGS
    Codec ID/Info               : Picture based subtitle format used on BDs/HD-DVDs
    Duration                    : 2 h 17 min
    Bit rate                    : 4 530 b/s
    Count of elements           : 1004
    Stream size                 : 4.45 MiB (0%)
    Title                       : Español-PGS [CinemaniaHDD]
    Language                    : Spanish
    Default                     : No
    Forced                      : No

    Text #2
    ID                          : 4
    Format                      : PGS
    Muxing mode                 : zlib
    Codec ID                    : S_HDMV/PGS
    Codec ID/Info               : Picture based subtitle format used on BDs/HD-DVDs
    Duration                    : 2 h 8 min
    Bit rate                    : 4 650 b/s
    Count of elements           : 1002
    Stream size                 : 4.28 MiB (0%)
    Title                       : Ingles [CinemaniaHDD]
    Language                    : English
    Default                     : No
    Forced                      : No

    Text #3
    ID                          : 5
    Format                      : UTF-8
    Codec ID                    : S_TEXT/UTF8
    Codec ID/Info               : UTF-8 Plain Text
    Duration                    : 2 h 8 min
    Bit rate                    : 11 b/s
    Count of elements           : 444
    Stream size                 : 10.7 KiB (0%)
    Title                       : Español-SRT [CinemaniaHDD]
    Language                    : Spanish
    Default                     : Yes
    Forced                      : Yes

    Menu
    00:00:00.000                : Hunters
    00:08:06.027                : Safe Passing
    00:12:50.436                : Fear
    00:19:04.143                : Sacred Gathering
    00:22:57.626                : Ravage
    00:32:20.939                : "Don't Be Afraid"
    00:37:31.875                : Safe From Harm
    00:48:15.351                : Cut Loose
    00:56:26.216                : Prophecy
    01:00:40.470                : Place Built of Stone
    01:09:01.804                : Sacrifice
    01:17:59.633                : Day Becomes Night
    01:23:02.477                : Run!
    01:31:58.972                : Man Who Brings the Jaguar
    01:42:54.418                : "I Am Jaguar Paw"
    01:50:01.678                : Reborn of Mud and Earth
    01:57:32.379                : Warrior's Death
    02:07:53.165                : New Beginning
    02:09:38.771                : End Credits

  • Peso: 33.1 GiB

Sinopsis

Descargar Apocalypto (2006) REMUX 1080p Sub-CMHDD. Historia ambientada en la época del imperio maya. Cuando la idílica existencia de los mayas es brutalmente interrumpida por el ataque de una fuerza invasora, un hombre emprende un arriesgado viaje a un mundo regido por el miedo y la opresión en el que le espera un incierto final. Debido a un giro del destino y espoleado por el amor a su esposa y a su familia, emprenderá el regreso a su hogar en un desesperado esfuerzo por preservar su forma de vida…

Audio Maya DTS-HD 5.1 Bluray

Ficha técnica

Video trailer de la película

Enlaces de descarga

Rip de Bluray

Descargar Apocalypto (2006) REMUX 1080p Sub-CMHDD


Aportes de DPeliculasHDmega la pass es:dpeliculashdmega.org Aportes de CinemaniaHD la pass es:cinemaniahdd.com Aportes recientes:cinemaniahdd.net
Guardado en : Acción , Drama , Historia , Remux

Películas relacionadas

descargar Apocalypto (2006) REMUX 1080p Sub-CMHDD Full 1080p 1080p gratis, Apocalypto (2006) REMUX 1080p Sub-CMHDD Full 1080p mega 1 link, Apocalypto (2006) REMUX 1080p Sub-CMHDD Full 1080p pelicula completa, descargar Apocalypto (2006) REMUX 1080p Sub-CMHDD Full 1080p gratis en mega.

Apocalypto (2006) REMUX 1080p Sub-CMHDD pelicula full hd, Apocalypto (2006) REMUX 1080p Sub-CMHDD mega latino, Apocalypto (2006) REMUX 1080p Sub-CMHDD 4k latino, Apocalypto (2006) REMUX 1080p Sub-CMHDD pelicula completa, Apocalypto (2006) REMUX 1080p Sub-CMHDD descargar gratis, descargar Apocalypto (2006) REMUX 1080p Sub-CMHDD pelicula latino, Apocalypto (2006) REMUX 1080p Sub-CMHDD 1 link mega, Apocalypto (2006) REMUX 1080p Sub-CMHDD 1 link google drive, Apocalypto (2006) REMUX 1080p Sub-CMHDD hd 1080p latino.
Comentarios 0