×

¿Problemas para descargar con Mozilla, EDGE? Deshabilita la opción "Abrir vinculos en una pestaña nueva" tal como lo muestra ésta imagen.

Anything’s Possible (2022) AMZN WEB-DL 1080p Latino

241 vistas

Información de Anything’s Possible (2022) AMZN WEB-DL 1080p Latino

Datos de la película

  • Calidad: 1080p
  • Audio: Español Latino AC3 5.1 WEB-DL - Ingles AC3 5.1 WEB-DL
  • Subtitulos: Español Latino SRT- FORZADOS SRT
  • Resolución: 1920x1080
  • Formato: MKV
  • Codec: H.264
  • Encoder: cinemaniahdd
  • Mediainfo: Clic para Mostrar Datos Ver
  • Anythings Possible (2022) AMZN WEB-DL 1080p Latino [CNMNHDD].mkv
    Format                      : Matroska
    Format version              : Version 4
    File size                   : 7.32 GiB
    Duration                    : 1 h 38 min
    Overall bit rate            : 10.7 Mb/s
    Movie name                  : Anythings Possible (2022) [1080p] - CinemaniaHDD.Net
    Encoded date                : UTC 2022-07-22 00:16:41
    Writing application         : mkvmerge v56.1.0 ('My Friend') 64-bit
    Writing library             : libebml v1.4.2 + libmatroska v1.6.4

    Video
    ID                          : 1
    Format                      : AVC
    Format/Info                 : Advanced Video Codec
    Format profile              : High@L4
    Format settings             : CABAC / 4 Ref Frames
    Format settings, CABAC      : Yes
    Format settings, Reference  : 4 frames
    Codec ID                    : V_MPEG4/ISO/AVC
    Duration                    : 1 h 38 min
    Bit rate mode               : Constant
    Bit rate                    : 8 749 kb/s
    Nominal bit rate            : 10 000 kb/s
    Width                       : 1 920 pixels
    Height                      : 1 040 pixels
    Display aspect ratio        : 1.85:1
    Frame rate mode             : Constant
    Frame rate                  : 23.976 (24000/1001) FPS
    Color space                 : YUV
    Chroma subsampling          : 4:2:0
    Bit depth                   : 8 bits
    Scan type                   : Progressive
    Bits/(Pixel*Frame)          : 0.183
    Stream size                 : 6.00 GiB (82%)
    Title                       : CinemaniaHDD
    Default                     : Yes
    Forced                      : No
    Color range                 : Limited
    Color primaries             : BT.709
    Transfer characteristics    : BT.709
    Matrix coefficients         : BT.709

    Audio #1
    ID                          : 2
    Format                      : AC-3
    Format/Info                 : Audio Coding 3
    Commercial name             : Dolby Digital
    Codec ID                    : A_AC3
    Duration                    : 1 h 38 min
    Bit rate mode               : Constant
    Bit rate                    : 640 kb/s
    Channel(s)                  : 6 channels
    Channel layout              : L R C LFE Ls Rs
    Sampling rate               : 48.0 kHz
    Frame rate                  : 31.250 FPS (1536 SPF)
    Compression mode            : Lossy
    Stream size                 : 450 MiB (6%)
    Title                       : Español latino [CinemaniaHDD]
    Language                    : Spanish
    Service kind                : Complete Main
    Default                     : Yes
    Forced                      : No

    Audio #2
    ID                          : 3
    Format                      : E-AC-3
    Format/Info                 : Enhanced AC-3
    Commercial name             : Dolby Digital Plus
    Codec ID                    : A_EAC3
    Duration                    : 1 h 38 min
    Bit rate mode               : Constant
    Bit rate                    : 640 kb/s
    Channel(s)                  : 6 channels
    Channel layout              : L R C LFE Ls Rs
    Sampling rate               : 48.0 kHz
    Frame rate                  : 31.250 FPS (1536 SPF)
    Compression mode            : Lossy
    Stream size                 : 450 MiB (6%)
    Title                       : Español latino / E-AC3 [CinemaniaHDD]
    Language                    : Spanish
    Service kind                : Complete Main
    Default                     : No
    Forced                      : No

    Audio #3
    ID                          : 4
    Format                      : E-AC-3
    Format/Info                 : Enhanced AC-3
    Commercial name             : Dolby Digital Plus
    Codec ID                    : A_EAC3
    Duration                    : 1 h 38 min
    Bit rate mode               : Constant
    Bit rate                    : 640 kb/s
    Channel(s)                  : 6 channels
    Channel layout              : L R C LFE Ls Rs
    Sampling rate               : 48.0 kHz
    Frame rate                  : 31.250 FPS (1536 SPF)
    Compression mode            : Lossy
    Stream size                 : 450 MiB (6%)
    Title                       : Inglés [CinemaniaHDD]
    Language                    : English
    Service kind                : Complete Main
    Default                     : No
    Forced                      : No

    Text #1
    ID                          : 5
    Format                      : UTF-8
    Codec ID                    : S_TEXT/UTF8
    Codec ID/Info               : UTF-8 Plain Text
    Duration                    : 1 h 29 min
    Bit rate                    : 2 b/s
    Count of elements           : 68
    Stream size                 : 1.83 KiB (0%)
    Title                       : Forzados [CinemaniaHDD]
    Language                    : Spanish
    Default                     : Yes
    Forced                      : Yes

    Text #2
    ID                          : 6
    Format                      : UTF-8
    Codec ID                    : S_TEXT/UTF8
    Codec ID/Info               : UTF-8 Plain Text
    Duration                    : 1 h 30 min
    Bit rate                    : 66 b/s
    Count of elements           : 1704
    Stream size                 : 43.7 KiB (0%)
    Title                       : Español latino [CinemaniaHDD]
    Language                    : Spanish
    Default                     : No
    Forced                      : No

    Text #3
    ID                          : 7
    Format                      : UTF-8
    Codec ID                    : S_TEXT/UTF8
    Codec ID/Info               : UTF-8 Plain Text
    Duration                    : 1 h 31 min
    Bit rate                    : 83 b/s
    Count of elements           : 2004
    Stream size                 : 55.4 KiB (0%)
    Title                       : Inglés [CinemaniaHDD]
    Language                    : English
    Default                     : No
    Forced                      : No

    Menu
    00:00:00.000                : Amazon Original
    00:00:07.000                : Studio Logo
    00:00:27.000                : Scene 3
    00:04:19.000                : Title Sequence
    00:04:27.000                : Scene 5
    00:08:09.000                : Scene 6
    00:10:04.000                : Scene 7
    00:12:36.000                : Scene 8
    00:14:03.000                : Scene 9
    00:16:56.000                : Scene 10
    00:19:17.000                : Scene 11
    00:23:22.000                : Scene 12
    00:24:37.000                : Scene 13
    00:26:16.000                : Scene 14
    00:28:02.000                : Scene 15
    00:29:30.000                : Scene 16
    00:30:59.000                : Scene 17
    00:35:31.000                : Scene 18
    00:36:47.000                : Scene 19
    00:45:29.000                : Scene 20
    00:47:17.000                : Scene 21
    00:48:16.000                : Scene 22
    00:49:44.000                : Scene 23
    00:50:47.000                : Scene 24
    00:52:06.000                : Scene 25
    00:55:02.000                : Scene 26
    00:57:37.000                : Scene 27
    00:59:21.000                : Scene 28
    01:02:41.000                : Scene 29
    01:06:05.000                : Scene 30
    01:09:43.000                : Scene 31
    01:12:40.000                : Scene 32
    01:15:08.000                : Scene 33
    01:18:04.000                : Scene 34
    01:20:09.000                : Scene 35
    01:21:20.000                : Scene 36
    01:23:16.000                : Scene 37
    01:29:48.000                : End Credits

     

  • Peso: 7.32 GiB

Sinopsis

Cuando el timido estudiante de secundaria, Khal, publica anónimamente un mensaje sobre su enamoramiento por una chica trans, los comentarios positivos lo inspiran a invitarla a salir… llevándolo a un romance de la Generación Z alocado y maravilloso.

Ficha técnica

Video trailer de la película

Enlaces de descarga

Rip de Bluray

Descargar Anything’s Possible (2022) AMZN WEB-DL 1080p Latino




Aportes de DPeliculasHDmega la pass es:dpeliculashdmega.org Aportes de CinemaniaHD la pass es:cinemaniahdd.com
Guardado en : Comedia , Drama , Romance

Películas relacionadas

descargar Anything’s Possible (2022) AMZN WEB-DL 1080p Latino 1080p 1080p gratis, Anything’s Possible (2022) AMZN WEB-DL 1080p Latino 1080p mega 1 link, Anything’s Possible (2022) AMZN WEB-DL 1080p Latino 1080p pelicula completa, descargar Anything’s Possible (2022) AMZN WEB-DL 1080p Latino 1080p gratis en mega.

Anything’s Possible (2022) AMZN WEB-DL 1080p Latino pelicula full hd, Anything’s Possible (2022) AMZN WEB-DL 1080p Latino mega latino, Anything’s Possible (2022) AMZN WEB-DL 1080p Latino 4k latino, Anything’s Possible (2022) AMZN WEB-DL 1080p Latino pelicula completa, Anything’s Possible (2022) AMZN WEB-DL 1080p Latino descargar gratis, descargar Anything’s Possible (2022) AMZN WEB-DL 1080p Latino pelicula latino, Anything’s Possible (2022) AMZN WEB-DL 1080p Latino 1 link mega, Anything’s Possible (2022) AMZN WEB-DL 1080p Latino 1 link google drive, Anything’s Possible (2022) AMZN WEB-DL 1080p Latino hd 1080p latino.
Comentarios 0