Antonia: Una sinfonía (2018) REMUX 1080p Latino

38 vistas
1 estrella2 estrellas3 estrellas4 estrellas5 estrellas (1 votos, promedio: 5,00 de 5)
Cargando...

Información de Antonia: Una sinfonía (2018) REMUX 1080p Latino

Datos de la película

  • Calidad: Full 1080p
  • Audio: Español Latino AC3 2.0 WEB-DL - Ingles DTS 5.1 BLURAY
  • Subtitulos: Español Latino SRT- FORZADOS SRT
  • Resolución: 1920x1080p
  • Formato: MKV
  • Codec: H.264
  • Encoder: Melkor
  • Mediainfo: Clic para Mostrar Datos Ver
  • Antonia Una sinfonía (2018) REMUX 1080p Latino.mkv
    Format                      : Matroska
    Format version              : Version 4
    File size                   : 30.7 GiB
    Duration                    : 2 h 19 min
    Overall bit rate mode       : Variable
    Overall bit rate            : 31.6 Mb/s
    Movie name                  : The Conductor (2018) CinemaniaHDD.Net
    Encoded date                : UTC 2021-07-28 06:36:37
    Writing application         : mkvmerge v56.1.0 ('My Friend') 64-bit
    Writing library             : libebml v1.4.2 + libmatroska v1.6.4
    Attachments                 : CINEMANIAHD.png

    Video
    ID                          : 1
    Format                      : AVC
    Format/Info                 : Advanced Video Codec
    Format profile              : High@L4.1
    Format settings             : CABAC / 3 Ref Frames
    Format settings, CABAC      : Yes
    Format settings, Reference  : 3 frames
    Codec ID                    : V_MPEG4/ISO/AVC
    Duration                    : 2 h 19 min
    Bit rate mode               : Variable
    Bit rate                    : 28.0 Mb/s
    Maximum bit rate            : 35.0 Mb/s
    Width                       : 1 920 pixels
    Height                      : 1 080 pixels
    Display aspect ratio        : 16:9
    Frame rate mode             : Constant
    Frame rate                  : 23.976 (24000/1001) FPS
    Color space                 : YUV
    Chroma subsampling          : 4:2:0
    Bit depth                   : 8 bits
    Scan type                   : Progressive
    Bits/(Pixel*Frame)          : 0.563
    Stream size                 : 27.3 GiB (89%)
    Title                       : REMUX HD1080p [CinemaniaHDD]
    Language                    : English
    Default                     : Yes
    Forced                      : No

    Audio #1
    ID                          : 2
    Format                      : AC-3
    Format/Info                 : Audio Coding 3
    Commercial name             : Dolby Digital
    Codec ID                    : A_AC3
    Duration                    : 2 h 19 min
    Bit rate mode               : Constant
    Bit rate                    : 256 kb/s
    Channel(s)                  : 2 channels
    Channel layout              : L R
    Sampling rate               : 48.0 kHz
    Frame rate                  : 31.250 FPS (1536 SPF)
    Compression mode            : Lossy
    Delay relative to video     : 23 ms
    Stream size                 : 255 MiB (1%)
    Title                       : Español Latino [CinemaniaHDD]
    Language                    : Spanish
    Service kind                : Complete Main
    Default                     : Yes
    Forced                      : Yes

    Audio #2
    ID                          : 3
    Format                      : DTS XLL
    Format/Info                 : Digital Theater Systems
    Commercial name             : DTS-HD Master Audio
    Codec ID                    : A_DTS
    Duration                    : 2 h 19 min
    Bit rate mode               : Variable
    Bit rate                    : 3 319 kb/s
    Channel(s)                  : 6 channels
    Channel layout              : C L R Ls Rs LFE
    Sampling rate               : 48.0 kHz
    Frame rate                  : 93.750 FPS (512 SPF)
    Bit depth                   : 24 bits
    Compression mode            : Lossless
    Stream size                 : 3.23 GiB (11%)
    Title                       : Ingles [CinemaniaHDD]
    Language                    : English
    Default                     : No
    Forced                      : No

    Text #1
    ID                          : 4
    Format                      : UTF-8
    Codec ID                    : S_TEXT/UTF8
    Codec ID/Info               : UTF-8 Plain Text
    Duration                    : 1 h 58 min
    Bit rate                    : 0 b/s
    Count of elements           : 5
    Stream size                 : 71.0 Bytes (0%)
    Title                       : Forzados-SRT [CinemaniaHDD]
    Language                    : Spanish
    Default                     : Yes
    Forced                      : No

    Text #2
    ID                          : 5
    Format                      : UTF-8
    Codec ID                    : S_TEXT/UTF8
    Codec ID/Info               : UTF-8 Plain Text
    Duration                    : 2 h 13 min
    Bit rate                    : 41 b/s
    Count of elements           : 1365
    Stream size                 : 40.8 KiB (0%)
    Title                       : Español-SRT [CinemaniaHDD]
    Language                    : Spanish
    Default                     : No
    Forced                      : No

    Text #3
    ID                          : 6
    Format                      : UTF-8
    Codec ID                    : S_TEXT/UTF8
    Codec ID/Info               : UTF-8 Plain Text
    Duration                    : 2 h 13 min
    Bit rate                    : 40 b/s
    Count of elements           : 1262
    Stream size                 : 39.3 KiB (0%)
    Title                       : Ingles-SRT [CinemaniaHDD]
    Language                    : English
    Default                     : No
    Forced                      : No

    Menu
    00:00:00.000                : Chapter 1
    00:11:01.995                : Chapter 2
    00:23:45.716                : Chapter 3
    00:37:20.071                : Chapter 4
    00:49:37.808                : Chapter 5
    01:00:09.606                : Chapter 6
    01:11:03.134                : Chapter 7
    01:24:11.588                : Chapter 8
    01:35:36.773                : Chapter 9
    01:49:42.743                : Chapter 10
    01:59:32.916                : Chapter 11
    02:14:27.935                : Chapter 12

  • Peso: 30.7 GiB

Sinopsis

Descargar Antonia: Una sinfonía (2018) REMUX 1080p Latino. Película basada en la vida de Antonia Brico, una mujer que en los años veinte soñaba con convertirse en directora de orquesta, pero nadie la tomaba en cuenta debido a su género.

Ficha técnica

  • Titulo original: De Dirigent
  • Fecha de lanzamiento: 25-10-2018 (Belgium, Bulgaria, Netherlands)
  • Director: Maria Peters
  • Género: Drama, Historia, Remux
  • Puntuación: 5.0 1 votos
  • Duración:
    2h 17m

Video trailer de la película

Enlaces de descarga

Rip de Bluray

Descargar Antonia: Una sinfonía (2018) REMUX 1080p Latino




Aportes de DPeliculasHDmega la pass es:dpeliculashdmega.org Aportes de CinemaniaHD la pass es:cinemaniahdd.com
Guardado en : Drama , Historia , Remux

Películas relacionadas

Antonia: Una sinfonía (2018) REMUX 1080p Latino pelicula full hd, Antonia: Una sinfonía (2018) REMUX 1080p Latino mega latino, Antonia: Una sinfonía (2018) REMUX 1080p Latino 4k latino, Antonia: Una sinfonía (2018) REMUX 1080p Latino pelicula completa, Antonia: Una sinfonía (2018) REMUX 1080p Latino descargar gratis, descargar Antonia: Una sinfonía (2018) REMUX 1080p Latino pelicula latino, Antonia: Una sinfonía (2018) REMUX 1080p Latino 1 link mega, Antonia: Una sinfonía (2018) REMUX 1080p Latino 1 link google drive, Antonia: Una sinfonía (2018) REMUX 1080p Latino hd 1080p latino.
Comentarios 0