Ant-Man y la Avispa (2018) WEB-DL 1080p Latino

4.669 vistas
1 estrella2 estrellas3 estrellas4 estrellas5 estrellas (15 votos, promedio: 4,27 de 5)
Cargando…

Información de Ant-Man y la Avispa (2018) WEB-DL 1080p Latino

Datos de la película

  • Calidad: WEBDL
  • Audio: Español Latino AC3 2.0 iTunes - Ingles AC3 5.1 iTunes
  • Subtitulos: Español Latino SRT- FORZADOS SRT
  • Resolución: 1920x804p
  • Formato: MKV
  • Codec: H.264
  • Encoder: Dracarys
  • Mediainfo: Clic para Mostrar Datos Ver
  • Format                                   : Matroska
    Format version                           : Version 4 / Version 2
    File size                                : 4.25 GiB
    Duration                                 : 1 h 58 min
    Overall bit rate                         : 5 149 kb/s
    Movie name                               : CinemaniaHDD.net
    Encoded date                             : UTC 2018-10-02 05:42:25
    Writing application                      : mkvmerge v15.0.0 ('Duel with the Devil') 64-bit
    Writing library                          : libebml v1.3.5 + libmatroska v1.4.5

    Video
    ID                                       : 1
    Format                                   : AVC
    Format/Info                              : Advanced Video Codec
    Format profile                           : [email protected]
    Format settings                          : CABAC / 5 Ref Frames
    Format settings, CABAC                   : Yes
    Format settings, RefFrames               : 5 frames
    Codec ID                                 : V_MPEG4/ISO/AVC
    Duration                                 : 1 h 58 min
    Bit rate                                 : 4 507 kb/s
    Width                                    : 1 920 pixels
    Height                                   : 804 pixels
    Display aspect ratio                     : 2.40:1
    Frame rate mode                          : Constant
    Frame rate                               : 23.976 (24000/1001) FPS
    Color space                              : YUV
    Chroma subsampling                       : 4:2:0
    Bit depth                                : 8 bits
    Scan type                                : Progressive
    Bits/(Pixel*Frame)                       : 0.122
    Stream size                              : 3.72 GiB (88%)
    Title                                    : Ant-Man y la Avispa (2018) WEB-DL 1080p Latino
    Language                                 : English
    Default                                  : Yes
    Forced                                   : No
    Color range                              : Limited
    Color primaries                          : BT.709
    Transfer characteristics                 : BT.709
    Matrix coefficients                      : BT.709

    Audio #1
    ID                                       : 2
    Format                                   : AC-3
    Format/Info                              : Audio Coding 3
    Format settings, Endianness              : Big
    Codec ID                                 : A_AC3
    Duration                                 : 1 h 58 min
    Bit rate mode                            : Constant
    Bit rate                                 : 256 kb/s
    Channel(s)                               : 2 channels
    Channel positions                        : Front: L R
    Sampling rate                            : 48.0 kHz
    Frame rate                               : 31.250 FPS (1536 SPF)
    Bit depth                                : 16 bits
    Compression mode                         : Lossy
    Delay relative to video                  : -42 ms
    Stream size                              : 216 MiB (5%)
    Language                                 : Spanish
    Service kind                             : Complete Main
    Default                                  : Yes
    Forced                                   : No

    Audio #2
    ID                                       : 3
    Format                                   : AC-3
    Format/Info                              : Audio Coding 3
    Format settings, Endianness              : Big
    Codec ID                                 : A_AC3
    Duration                                 : 1 h 58 min
    Bit rate mode                            : Constant
    Bit rate                                 : 384 kb/s
    Channel(s)                               : 6 channels
    Channel positions                        : Front: L C R, Side: L R, LFE
    Sampling rate                            : 48.0 kHz
    Frame rate                               : 31.250 FPS (1536 SPF)
    Bit depth                                : 16 bits
    Compression mode                         : Lossy
    Delay relative to video                  : -42 ms
    Stream size                              : 324 MiB (7%)
    Language                                 : English
    Service kind                             : Complete Main
    Default                                  : No
    Forced                                   : No

    Text #1
    ID                                       : 4
    Format                                   : UTF-8
    Codec ID                                 : S_TEXT/UTF8
    Codec ID/Info                            : UTF-8 Plain Text
    Duration                                 : 1 h 45 min
    Bit rate                                 : 0 b/s
    Count of elements                        : 14
    Stream size                              : 378 Bytes (0%)
    Title                                    : Forzado
    Language                                 : Spanish
    Default                                  : Yes
    Forced                                   : Yes

    Text #2
    ID                                       : 5
    Format                                   : UTF-8
    Codec ID                                 : S_TEXT/UTF8
    Codec ID/Info                            : UTF-8 Plain Text
    Duration                                 : 1 h 57 min
    Bit rate                                 : 57 b/s
    Count of elements                        : 1794
    Stream size                              : 50.0 KiB (0%)
    Language                                 : Spanish
    Default                                  : No
    Forced                                   : No

    Menu
    00:00:00.000                             : en:Prologue
    00:04:02.000                             : en:World's Greatest Grandma
    00:10:16.000                             : en:Easy Peasy
    00:13:39.000                             : en:Quantum Entanglement
    00:21:25.000                             : en:Kitchen Conflict
    00:29:07.000                             : en:Bill Foster
    00:36:09.000                             : en:Student Body
    00:40:56.000                             : en:Molecular Disequilibrium
    00:50:17.000                             : en:Truth Serum
    00:58:59.000                             : en:Help From Janet
    01:04:56.000                             : en:Partners
    01:12:54.000                             : en:Misdirection
    01:18:32.000                             : en:San Francisco Car Chase
    01:24:45.000                             : en:Giant-Man
    01:29:47.000                             : en:The Quantum Void
    01:36:16.000                             : en:Extraction
    01:43:35.000                             : en:Happy Endings
    01:46:59.000                             : en:End Credits

  • Peso: 4.25 GiB

Sinopsis

Tras lo sucedido en Capitán América: Civil War, Scott Lang (Paul Rudd), también conocido como Ant-Man, debe lidiar a la par con las consecuencias de sus acciones como superhéroe y como padre. Mientras él intenta equilibrar su vida familiar y sus responsabilidades como Ant-Man, Hope Van Dyne (Evangeline Lilly) y Hank Pym (Michael Douglas) necesitarán su ayuda para realizar una misión muy urgente. Scott tendrá, una vez más, que ponerse su traje y aprender a luchar junto a The Wasp para formar un equipo que logre destapar secretos de su pasado.

Ficha técnica

Video trailer de la película

Enlaces de descarga

Rip de Bluray

Descargar Ant-Man y la Avispa (2018) WEB-DL 1080p Latino




Aportes de DPeliculasHDmega la pass es:dpeliculashdmega.org Aportes de CinemaniaHD la pass es:cinemaniahdd.com

Películas relacionadas

Comentarios 1