×

¿Problemas para descargar con Mozilla, EDGE? Deshabilita la opción "Abrir vinculos en una pestaña nueva" tal como lo muestra ésta imagen.

Mi otro yo (2013) REMUX 1080p Latino

488 vistas

Información de Mi otro yo (2013) REMUX 1080p Latino

Datos de la película

  • Calidad: Full 1080p
  • Audio: Español Latino AC3 5.1 DVD - Ingles DTS 5.1 BLURAY
  • Subtitulos: Español Latino SRT- FORZADOS SRT
  • Resolución: 1920x1080p
  • Formato: MKV
  • Codec: H.264
  • Encoder: CinefiloCool
  • Mediainfo: Clic para Mostrar Datos Ver
  • Mi Otro Yo (2013) REMUX 1080p Latino-CMHDD.mkv
    Format                      : Matroska
    Format version              : Version 4
    File size                   : 16.7 GiB
    Duration                    : 1 h 24 min
    Overall bit rate mode       : Variable
    Overall bit rate            : 28.3 Mb/s
    Movie name                  : Another Me (2013) CinemaniaHDD.Net
    Encoded date                : UTC 2022-08-16 06:27:37
    Writing application         : mkvmerge v56.1.0 ('My Friend') 64-bit
    Writing library             : libebml v1.4.2 + libmatroska v1.6.4
    Attachments                 : CINEMANIAHD.png

    Video
    ID                          : 1
    Format                      : AVC
    Format/Info                 : Advanced Video Codec
    Format profile              : High@L4.1
    Format settings             : CABAC / 4 Ref Frames
    Format settings, CABAC      : Yes
    Format settings, Reference  : 4 frames
    Codec ID                    : V_MPEG4/ISO/AVC
    Duration                    : 1 h 24 min
    Bit rate mode               : Variable
    Bit rate                    : 26.0 Mb/s
    Maximum bit rate            : 31.0 Mb/s
    Width                       : 1 920 pixels
    Height                      : 1 080 pixels
    Display aspect ratio        : 16:9
    Frame rate mode             : Constant
    Frame rate                  : 24.000 FPS
    Standard                    : NTSC
    Color space                 : YUV
    Chroma subsampling          : 4:2:0
    Bit depth                   : 8 bits
    Scan type                   : Progressive
    Bits/(Pixel*Frame)          : 0.521
    Stream size                 : 15.3 GiB (91%)
    Title                       : REMUX HD1080p [CinemaniaHDD]
    Language                    : English
    Default                     : Yes
    Forced                      : Yes
    Color range                 : Limited
    Color primaries             : BT.709
    Transfer characteristics    : BT.709
    Matrix coefficients         : BT.709

    Audio #1
    ID                          : 2
    Format                      : AC-3
    Format/Info                 : Audio Coding 3
    Commercial name             : Dolby Digital
    Codec ID                    : A_AC3
    Duration                    : 1 h 24 min
    Bit rate mode               : Constant
    Bit rate                    : 448 kb/s
    Channel(s)                  : 6 channels
    Channel layout              : L R C LFE Ls Rs
    Sampling rate               : 48.0 kHz
    Frame rate                  : 31.250 FPS (1536 SPF)
    Compression mode            : Lossy
    Stream size                 : 271 MiB (2%)
    Title                       : Español Latino [CinemaniaHDD]
    Language                    : Spanish
    Service kind                : Complete Main
    Default                     : Yes
    Forced                      : Yes

    Audio #2
    ID                          : 3
    Format                      : DTS XLL
    Format/Info                 : Digital Theater Systems
    Commercial name             : DTS-HD Master Audio
    Codec ID                    : A_DTS
    Duration                    : 1 h 24 min
    Bit rate mode               : Variable
    Bit rate                    : 1 947 kb/s
    Channel(s)                  : 6 channels
    Channel layout              : C L R Ls Rs LFE
    Sampling rate               : 48.0 kHz
    Frame rate                  : 93.750 FPS (512 SPF)
    Bit depth                   : 16 bits
    Compression mode            : Lossless
    Stream size                 : 1.15 GiB (7%)
    Title                       : Ingles [CinemaniaHDD]
    Language                    : English
    Default                     : No
    Forced                      : No

    Text #1
    ID                          : 4
    Format                      : UTF-8
    Codec ID                    : S_TEXT/UTF8
    Codec ID/Info               : UTF-8 Plain Text
    Duration                    : 48 min 2 s
    Bit rate                    : 0 b/s
    Count of elements           : 6
    Stream size                 : 133 Bytes (0%)
    Title                       : Forzados-SRT [CinemaniaHDD]
    Language                    : Spanish
    Default                     : Yes
    Forced                      : Yes

    Text #2
    ID                          : 5
    Format                      : UTF-8
    Codec ID                    : S_TEXT/UTF8
    Codec ID/Info               : UTF-8 Plain Text
    Duration                    : 1 h 22 min
    Bit rate                    : 36 b/s
    Count of elements           : 750
    Stream size                 : 22.1 KiB (0%)
    Title                       : Español-SRT [CinemaniaHDD]
    Language                    : Spanish
    Default                     : No
    Forced                      : No

    Text #3
    ID                          : 6
    Format                      : PGS
    Muxing mode                 : zlib
    Codec ID                    : S_HDMV/PGS
    Codec ID/Info               : Picture based subtitle format used on BDs/HD-DVDs
    Duration                    : 1 h 14 min
    Bit rate                    : 28.4 kb/s
    Count of elements           : 1462
    Stream size                 : 15.2 MiB (0%)
    Title                       : Ingles [CinemaniaHDD]
    Language                    : English
    Default                     : No
    Forced                      : No

    Menu
    00:00:00.000                : Chapter 1
    00:09:34.875                : Chapter 2
    00:19:11.625                : Chapter 3
    00:30:42.250                : Chapter 4
    00:41:24.000                : Chapter 5
    00:56:04.500                : Chapter 6
    01:03:01.125                : Chapter 7
    01:12:33.000                : Chapter 8
    01:16:44.000                : Chapter 9

  • Peso: 16.7 GiB

Sinopsis

Descargar Mi otro yo (2013) REMUX 1080p Latino. La vida de la joven Fay parece perfecta, pero todo va a cambiar de la manera más insospechada. Un día, aparentemente un día como cualquier otro, Fay empieza a tener la molesta sensación de que alguien la está siguiendo. Aunque parece absurdo, Fay juraría que ese alguien es su doble, una persona exactamente igual a ella. Y más aún, cada vez está más convencida de que esa persona no se conforma con tener su mismo aspecto, sino que quiere tener su vida entera. Nunca se lo podría haber imaginado, pero Fay pronto descubre que ha sido alcanzada por una parte secreta y oscura de su pasado.

Audio Latino: The Chief Thanks for the Source!!🙂
Disponible Solo Para VIP!!!

Ficha técnica

Video trailer de la película

Enlaces de descarga

Rip de Bluray

Descargar Mi otro yo (2013) REMUX 1080p Latino


Aportes de DPeliculasHDmega la pass es:dpeliculashdmega.org Aportes de CinemaniaHD la pass es:cinemaniahdd.com
Guardado en : Drama , Misterio , Remux , Suspenso , Terror

Películas relacionadas

descargar Mi otro yo (2013) REMUX 1080p Latino Full 1080p 1080p gratis, Mi otro yo (2013) REMUX 1080p Latino Full 1080p mega 1 link, Mi otro yo (2013) REMUX 1080p Latino Full 1080p pelicula completa, descargar Mi otro yo (2013) REMUX 1080p Latino Full 1080p gratis en mega.

Mi otro yo (2013) REMUX 1080p Latino pelicula full hd, Mi otro yo (2013) REMUX 1080p Latino mega latino, Mi otro yo (2013) REMUX 1080p Latino 4k latino, Mi otro yo (2013) REMUX 1080p Latino pelicula completa, Mi otro yo (2013) REMUX 1080p Latino descargar gratis, descargar Mi otro yo (2013) REMUX 1080p Latino pelicula latino, Mi otro yo (2013) REMUX 1080p Latino 1 link mega, Mi otro yo (2013) REMUX 1080p Latino 1 link google drive, Mi otro yo (2013) REMUX 1080p Latino hd 1080p latino.
Comentarios 0