×

¿Problemas para descargar con Mozilla, EDGE? Deshabilita la opción "Abrir vinculos en una pestaña nueva" tal como lo muestra ésta imagen.

Otro Mundo (2011) Full HD 1080p Latino-CMHDD

87 vistas

Información de Otro Mundo (2011) Full HD 1080p Latino-CMHDD

Datos de la película

  • Calidad: Full 1080p
  • Audio: Español Latino AC3 5.1 DVD - Ingles DTS 5.1 BLURAY
  • Subtitulos: Español Latino PGS - Ingles PGS
  • Resolución: 1920x1080p
  • Formato: MKV
  • Codec: H.264
  • Encoder: CinefiloCool
  • Mediainfo: Clic para Mostrar Datos Ver
  • Another.Earth.2011.Bluray.FullHD.1080p.x264.Latino-CC@CMHDD.mkv
    Format                      : Matroska
    Format version              : Version 4
    File size                   : 6.06 GiB
    Duration                    : 1 h 32 min
    Overall bit rate            : 9 389 kb/s
    Movie name                  : Another Earth (2011) CinemaniaHDD.Net
    Encoded date                : UTC 2024-02-07 03:49:58
    Writing application         : mkvmerge v56.1.0 ('My Friend') 64-bit
    Writing library             : libebml v1.4.2 + libmatroska v1.6.4
    Cover                       : Yes
    Attachments                 : cover.jpg / CINEMANIAHD.png

    Video
    ID                          : 1
    Format                      : AVC
    Format/Info                 : Advanced Video Codec
    Format profile              : High@L4.1
    Format settings             : CABAC / 4 Ref Frames
    Format settings, CABAC      : Yes
    Format settings, Reference  : 4 frames
    Codec ID                    : V_MPEG4/ISO/AVC
    Duration                    : 1 h 32 min
    Bit rate                    : 7 392 kb/s
    Width                       : 1 920 pixels
    Height                      : 1 080 pixels
    Display aspect ratio        : 16:9
    Frame rate mode             : Constant
    Frame rate                  : 23.976 (24000/1001) FPS
    Color space                 : YUV
    Chroma subsampling          : 4:2:0
    Bit depth                   : 8 bits
    Scan type                   : Progressive
    Bits/(Pixel*Frame)          : 0.149
    Stream size                 : 4.77 GiB (79%)
    Title                       : Full HD1080p [CinemaniaHDD]
    Writing library             : x264 core 163 r3059 b684ebe0
    Encoding settings           : cabac=1 / ref=4 / deblock=1:0:0 / analyse=0x3:0x133 / me=tesa / subme=11 / psy=1 / psy_rd=1.00:0.00 / mixed_ref=1 / me_range=24 / chroma_me=1 / trellis=2 / 8x8dct=1 / cqm=0 / deadzone=21,11 / fast_pskip=0 / chroma_qp_offset=-2 / threads=24 / lookahead_threads=6 / sliced_threads=0 / nr=0 / decimate=1 / interlaced=0 / bluray_compat=0 / constrained_intra=0 / bframes=16 / b_pyramid=2 / b_adapt=2 / b_bias=0 / direct=3 / weightb=1 / open_gop=0 / weightp=2 / keyint=240 / keyint_min=24 / scenecut=40 / intra_refresh=0 / rc_lookahead=60 / rc=crf / mbtree=1 / crf=20.0 / qcomp=0.60 / qpmin=0 / qpmax=69 / qpstep=4 / vbv_maxrate=62500 / vbv_bufsize=78125 / crf_max=0.0 / nal_hrd=none / filler=0 / ip_ratio=1.40 / aq=1:1.00
    Default                     : Yes
    Forced                      : Yes
    Color range                 : Limited
    Color primaries             : BT.709
    Transfer characteristics    : BT.709
    Matrix coefficients         : BT.709

    Audio #1
    ID                          : 2
    Format                      : AC-3
    Format/Info                 : Audio Coding 3
    Commercial name             : Dolby Digital
    Codec ID                    : A_AC3
    Duration                    : 1 h 32 min
    Bit rate mode               : Constant
    Bit rate                    : 448 kb/s
    Channel(s)                  : 6 channels
    Channel layout              : L R C LFE Ls Rs
    Sampling rate               : 48.0 kHz
    Frame rate                  : 31.250 FPS (1536 SPF)
    Compression mode            : Lossy
    Stream size                 : 296 MiB (5%)
    Title                       : Español Latino [CinemaniaHDD]
    Language                    : Spanish
    Service kind                : Complete Main
    Default                     : Yes
    Forced                      : Yes

    Audio #2
    ID                          : 3
    Format                      : DTS
    Format/Info                 : Digital Theater Systems
    Codec ID                    : A_DTS
    Duration                    : 1 h 32 min
    Bit rate mode               : Constant
    Bit rate                    : 1 509 kb/s
    Channel(s)                  : 6 channels
    Channel layout              : C L R Ls Rs LFE
    Sampling rate               : 48.0 kHz
    Frame rate                  : 93.750 FPS (512 SPF)
    Bit depth                   : 24 bits
    Compression mode            : Lossy
    Stream size                 : 998 MiB (16%)
    Title                       : Ingles [CinemaniaHDD]
    Language                    : English
    Default                     : No
    Forced                      : No

    Text #1
    ID                          : 4
    ID in the original source m : 4610 (0x1202)
    Format                      : PGS
    Muxing mode                 : zlib
    Codec ID                    : S_HDMV/PGS
    Codec ID/Info               : Picture based subtitle format used on BDs/HD-DVDs
    Duration                    : 1 h 31 min
    Bit rate                    : 37.1 kb/s
    Count of elements           : 1538
    Stream size                 : 24.3 MiB (0%)
    Title                       : Español-PGS [CinemaniaHDD]
    Language                    : Spanish
    Default                     : No
    Forced                      : No
    Original source medium      : Blu-ray

    Text #2
    ID                          : 5
    ID in the original source m : 4608 (0x1200)
    Format                      : PGS
    Muxing mode                 : zlib
    Codec ID                    : S_HDMV/PGS
    Codec ID/Info               : Picture based subtitle format used on BDs/HD-DVDs
    Duration                    : 1 h 31 min
    Bit rate                    : 43.1 kb/s
    Count of elements           : 1802
    Stream size                 : 28.3 MiB (0%)
    Title                       : Ingles [CinemaniaHDD]
    Language                    : English
    Default                     : No
    Forced                      : No
    Original source medium      : Blu-ray

    Text #3
    ID                          : 6
    Format                      : UTF-8
    Codec ID                    : S_TEXT/UTF8
    Codec ID/Info               : UTF-8 Plain Text
    Duration                    : 1 h 24 min
    Bit rate                    : 2 b/s
    Count of elements           : 37
    Stream size                 : 1.27 KiB (0%)
    Title                       : Forzados-SRT [CinemaniaHDD]
    Language                    : Spanish
    Default                     : Yes
    Forced                      : Yes

    Text #4
    ID                          : 7
    Format                      : UTF-8
    Codec ID                    : S_TEXT/UTF8
    Codec ID/Info               : UTF-8 Plain Text
    Duration                    : 1 h 31 min
    Bit rate                    : 39 b/s
    Count of elements           : 791
    Stream size                 : 26.3 KiB (0%)
    Title                       : Español-SRT [CinemaniaHDD]
    Language                    : Spanish
    Default                     : No
    Forced                      : No

    Menu
    00:00:00.000                : Chapter 01
    00:05:58.316                : Chapter 02
    00:10:23.998                : Chapter 03
    00:13:57.294                : Chapter 04
    00:17:05.816                : Chapter 05
    00:20:18.258                : Chapter 06
    00:26:39.681                : Chapter 07
    00:32:01.002                : Chapter 08
    00:36:29.312                : Chapter 09
    00:43:56.050                : Chapter 10
    00:48:39.958                : Chapter 11
    00:51:41.348                : Chapter 12
    00:55:06.386                : Chapter 13
    01:02:32.331                : Chapter 14
    01:04:56.183                : Chapter 15
    01:09:24.952                : Chapter 16
    01:17:52.334                : Chapter 17
    01:20:50.345                : Chapter 18
    01:25:20.406                : Chapter 19
    01:28:04.570                : Chapter 20

  • Peso: 6.06 GiB

Sinopsis

Descargar Otro Mundo (2011) Full HD 1080p Latino-CMHDD. Rhoda Williams, una brillante joven que acaba de ser aceptada en un programa de astrofísica del MIT, aspira a explorar el universo. John Burroughs, un compositor que acaba de alcanzar la cima de su carrera, está a punto de ser padre por segunda vez. Rhoda y John no se conocen, pero la víspera del descubrimiento de un Planeta Tierra duplicado tiene lugar una horrible tragedia que entrelaza y altera de modo irreversible sus vidas.

Ficha técnica

Video trailer de la película

Enlaces de descarga

Rip de Bluray

Descargar Otro Mundo (2011) Full HD 1080p Latino-CMHDD




Aportes de DPeliculasHDmega la pass es:dpeliculashdmega.org Aportes de CinemaniaHD la pass es:cinemaniahdd.com Aportes recientes:cinemaniahdd.net

Películas relacionadas

descargar Otro Mundo (2011) Full HD 1080p Latino-CMHDD Full 1080p 1080p gratis, Otro Mundo (2011) Full HD 1080p Latino-CMHDD Full 1080p mega 1 link, Otro Mundo (2011) Full HD 1080p Latino-CMHDD Full 1080p pelicula completa, descargar Otro Mundo (2011) Full HD 1080p Latino-CMHDD Full 1080p gratis en mega.

Otro Mundo (2011) Full HD 1080p Latino-CMHDD pelicula full hd, Otro Mundo (2011) Full HD 1080p Latino-CMHDD mega latino, Otro Mundo (2011) Full HD 1080p Latino-CMHDD 4k latino, Otro Mundo (2011) Full HD 1080p Latino-CMHDD pelicula completa, Otro Mundo (2011) Full HD 1080p Latino-CMHDD descargar gratis, descargar Otro Mundo (2011) Full HD 1080p Latino-CMHDD pelicula latino, Otro Mundo (2011) Full HD 1080p Latino-CMHDD 1 link mega, Otro Mundo (2011) Full HD 1080p Latino-CMHDD 1 link google drive, Otro Mundo (2011) Full HD 1080p Latino-CMHDD hd 1080p latino.
Comentarios 0