×

¿Problemas para descargar con Mozilla, EDGE? Deshabilita la opción "Abrir vinculos en una pestaña nueva" tal como lo muestra ésta imagen.

Anon (2018) REMUX 1080p Latino

242 vistas

Información de Anon (2018) REMUX 1080p Latino

Datos de la película

  • Calidad: Full 1080p
  • Audio: Español Latino AC3 5.1 WEB-DL - Ingles DTS 5.1 BLURAY
  • Subtitulos: Español Latino SRT - Ingles SRT
  • Resolución: 1920x1080p
  • Formato: MKV
  • Codec: H.264
  • Encoder: CinefiloCool
  • Mediainfo: Clic para Mostrar Datos Ver
  • Anon (2018) REMUX 1080p Latino-CMHDD.mkv Format                      : Matroska Format version              : Version 4 File size                   : 16.6 GiB Duration                    : 1 h 39 min Overall bit rate mode       : Variable Overall bit rate            : 23.9 Mb/s Movie name                  : Anon (2018) CinemaniaHDD.Net Encoded date                : UTC 2023-01-28 18:03:04 Writing application         : mkvmerge v56.1.0 ('My Friend') 64-bit Writing library             : libebml v1.4.2 + libmatroska v1.6.4 Attachments                 : CINEMANIAHD.png Video ID                          : 1 Format                      : AVC Format/Info                 : Advanced Video Codec Format profile              : High@L4.1 Format settings             : CABAC / 4 Ref Frames Format settings, CABAC      : Yes Format settings, Reference  : 4 frames Codec ID                    : V_MPEG4/ISO/AVC Duration                    : 1 h 39 min Bit rate mode               : Variable Bit rate                    : 21.9 Mb/s Maximum bit rate            : 30.0 Mb/s Width                       : 1 920 pixels Height                      : 1 080 pixels Display aspect ratio        : 16:9 Frame rate mode             : Constant Frame rate                  : 23.976 (24000/1001) FPS Standard                    : NTSC Color space                 : YUV Chroma subsampling          : 4:2:0 Bit depth                   : 8 bits Scan type                   : Progressive Bits/(Pixel*Frame)          : 0.441 Stream size                 : 15.3 GiB (92%) Title                       : REMUX HD1080p [CinemaniaHDD] Language                    : English Default                     : Yes Forced                      : Yes Color range                 : Limited Color primaries             : BT.709 Transfer characteristics    : BT.709 Matrix coefficients         : BT.709 Audio #1 ID                          : 2 Format                      : AC-3 Format/Info                 : Audio Coding 3 Commercial name             : Dolby Digital Codec ID                    : A_AC3 Duration                    : 1 h 39 min Bit rate mode               : Constant Bit rate                    : 640 kb/s Channel(s)                  : 6 channels Channel layout              : L R C LFE Ls Rs Sampling rate               : 48.0 kHz Frame rate                  : 31.250 FPS (1536 SPF) Compression mode            : Lossy Stream size                 : 457 MiB (3%) Title                       : Español Latino [CinemaniaHDD] Language                    : Spanish Service kind                : Complete Main Default                     : Yes Forced                      : Yes Audio #2 ID                          : 3 Format                      : DTS XLL Format/Info                 : Digital Theater Systems Commercial name             : DTS-HD Master Audio Codec ID                    : A_DTS Duration                    : 1 h 39 min Bit rate mode               : Variable Bit rate                    : 1 272 kb/s Channel(s)                  : 6 channels Channel layout              : C L R Ls Rs LFE Sampling rate               : 48.0 kHz Frame rate                  : 93.750 FPS (512 SPF) Bit depth                   : 16 bits Compression mode            : Lossless Stream size                 : 908 MiB (5%) Title                       : Ingles [CinemaniaHDD] Language                    : English Default                     : No Forced                      : No Text #1 ID                          : 4 Format                      : UTF-8 Codec ID                    : S_TEXT/UTF8 Codec ID/Info               : UTF-8 Plain Text Duration                    : 1 h 30 min Bit rate                    : 5 b/s Count of elements           : 149 Stream size                 : 3.54 KiB (0%) Title                       : Forzados-SRT [CinemaniaHDD] Language                    : Spanish Default                     : Yes Forced                      : Yes Text #2 ID                          : 5 Format                      : UTF-8 Codec ID                    : S_TEXT/UTF8 Codec ID/Info               : UTF-8 Plain Text Duration                    : 1 h 30 min Bit rate                    : 40 b/s Count of elements           : 976 Stream size                 : 27.2 KiB (0%) Title                       : Español-SRT [CinemaniaHDD] Language                    : Spanish Default                     : No Forced                      : No Text #3 ID                          : 6 Format                      : UTF-8 Codec ID                    : S_TEXT/UTF8 Codec ID/Info               : UTF-8 Plain Text Duration                    : 1 h 28 min Bit rate                    : 36 b/s Count of elements           : 854 Stream size                 : 24.0 KiB (0%) Title                       : Ingles [CinemaniaHDD] Language                    : English Default                     : No Forced                      : No Menu 00:00:00.000                : :00:00:00.000 00:21:58.901                : :00:21:58.901 00:31:47.614                : :00:31:47.614 00:41:29.278                : :00:41:29.278 01:01:34.524                : :01:01:34.524 01:14:49.819                : :01:14:49.819 01:22:25.774                : :01:22:25.774 01:32:05.854                : :01:32:05.854
  • Peso: 16.6 GiB

Sinopsis

Descargar Anon (2018) REMUX 1080p Latino. Anon nos lleva hasta un futuro no muy lejano al estilo soviético, donde el gobierno trata de combatir el crimen eliminando la privacidad, creando así una vigilancia total y de autocensura. Un oficial de policía llamado Sal Frieland hace todo lo posible para combatir el crimen en su ciudad. Sin embargo, las cosas toman un inesperado giro cuando se topa con una hacker conocida como The Girl, que le llevará a cuestionar su propio gobierno.

Ficha técnica

Video trailer de la película

Enlaces de descarga

Rip de Bluray

Descargar Anon (2018) REMUX 1080p Latino


Aportes de DPeliculasHDmega la pass es:dpeliculashdmega.org Aportes de CinemaniaHD la pass es:cinemaniahdd.com Aportes recientes:cinemaniahdd.net
Guardado en : Ciencia ficción , Remux

Películas relacionadas

  • Ghostbusters: El Legado (2021) REMUX 1080p Latino

    Ghostbusters: El Legado (2021) REMUX 1080p Latino

    2021
    Ghostbusters: El Legado (2021) REMUX 1080p Latino

    2h 4m 2021

    Descargar Ghostbusters: El Legado (2021) REMUX 1080p Latino. Una madre soltera y sus dos hijos se van...

    Director: Jason Reitman

    Género: Aventura

    Actores: Tracy Letts

  • Footloose (2011) REMUX 1080p Latino-CMHDD

    Footloose (2011) REMUX 1080p Latino-CMHDD

    2011
    Footloose (2011) REMUX 1080p Latino-CMHDD

    1h 53m 2011

    Descargar Footloose (2011) REMUX 1080p Latino-CMHDD. Remake de la película homónima que narra la historia...

    Director: Rosemary C. Cremona

    Género: Drama

    Actores: Ziah Colon

  • Footloose (1984) REMUX 1080p Latino-CMHDD

    Footloose (1984) REMUX 1080p Latino-CMHDD

    1984
    Footloose (1984) REMUX 1080p Latino-CMHDD

    1h 47m 1984

    Descargar Footloose (1984) REMUX 1080p Latino-CMHDD. Ren (Kevin Bacon), un adolescente recién llegado...

    Director: Robert Engelman

    Género: Drama

    Actores: Timothy Scott

descargar Anon (2018) REMUX 1080p Latino Full 1080p 1080p gratis, Anon (2018) REMUX 1080p Latino Full 1080p mega 1 link, Anon (2018) REMUX 1080p Latino Full 1080p pelicula completa, descargar Anon (2018) REMUX 1080p Latino Full 1080p gratis en mega.

Anon (2018) REMUX 1080p Latino pelicula full hd, Anon (2018) REMUX 1080p Latino mega latino, Anon (2018) REMUX 1080p Latino 4k latino, Anon (2018) REMUX 1080p Latino pelicula completa, Anon (2018) REMUX 1080p Latino descargar gratis, descargar Anon (2018) REMUX 1080p Latino pelicula latino, Anon (2018) REMUX 1080p Latino 1 link mega, Anon (2018) REMUX 1080p Latino 1 link google drive, Anon (2018) REMUX 1080p Latino hd 1080p latino.
Comentarios 0