×

¿Problemas para descargar con Mozilla, EDGE? Deshabilita la opción "Abrir vinculos en una pestaña nueva" tal como lo muestra ésta imagen.

Annabelle 3: Viene a casa (2019) WEB-DL 1080p Latino

2.016 vistas

Información de Annabelle 3: Viene a casa (2019) WEB-DL 1080p Latino

Datos de la película

  • Calidad: WEBDL
  • Audio: Español Latino AC3 5.1 iTunes - Ingles AC3 5.1 iTunes
  • Subtitulos: Español Latino SRT- FORZADOS SRT
  • Resolución: 1920x804
  • Formato: MKV
  • Codec: H.264
  • Encoder: Chesse92
  • Mediainfo: Clic para Mostrar Datos Ver
  • Annabelle 3 (2019) WEBDL 1080p Latino.mkv
    Format                      : Matroska
    Format version              : Version 4
    File size                   : 3.99 GiB
    Duration                    : 1 h 46 min
    Overall bit rate            : 5 382 kb/s
    Movie name                  : Annabelle 3 (2019) WEBDL 1080p Latino
    Encoded date                : UTC 2019-09-16 23:50:12
    Writing application         : mkvmerge v35.0.0 ('All The Love In The World') 64-bit
    Writing library             : libebml v1.3.9 + libmatroska v1.5.2

    Video
    ID                          : 1
    Format                      : AVC
    Format/Info                 : Advanced Video Codec
    Format profile              : High@L4
    Format settings             : CABAC / 5 Ref Frames
    Format settings, CABAC      : Yes
    Format settings, ReFrames   : 5 frames
    Codec ID                    : V_MPEG4/ISO/AVC
    Duration                    : 1 h 46 min
    Bit rate                    : 4 612 kb/s
    Width                       : 1 920 pixels
    Height                      : 804 pixels
    Display aspect ratio        : 2.40:1
    Frame rate mode             : Constant
    Frame rate                  : 23.976 FPS
    Color space                 : YUV
    Chroma subsampling          : 4:2:0
    Bit depth                   : 8 bits
    Scan type                   : Progressive
    Bits/(Pixel*Frame)          : 0.125
    Stream size                 : 3.42 GiB (86%)
    Title                       : CinemaniaHDD
    Language                    : English
    Default                     : Yes
    Forced                      : No
    Color range                 : Limited
    Color primaries             : BT.709
    Transfer characteristics    : BT.709
    Matrix coefficients         : BT.709

    Audio #1
    ID                          : 2
    Format                      : AC-3
    Format/Info                 : Audio Coding 3
    Commercial name             : Dolby Digital
    Codec ID                    : A_AC3
    Duration                    : 1 h 46 min
    Bit rate mode               : Constant
    Bit rate                    : 384 kb/s
    Channel(s)                  : 6 channels
    Channel layout              : L R C LFE Ls Rs
    Sampling rate               : 48.0 kHz
    Frame rate                  : 31.250 FPS (1536 SPF)
    Bit depth                   : 16 bits
    Compression mode            : Lossy
    Delay relative to video     : -42 ms
    Stream size                 : 291 MiB (7%)
    Title                       : Español latino [CinemaniaHDD]
    Language                    : Spanish
    Service kind                : Complete Main
    Default                     : Yes
    Forced                      : No

    Audio #2
    ID                          : 3
    Format                      : AC-3
    Format/Info                 : Audio Coding 3
    Commercial name             : Dolby Digital
    Codec ID                    : A_AC3
    Duration                    : 1 h 46 min
    Bit rate mode               : Constant
    Bit rate                    : 384 kb/s
    Channel(s)                  : 6 channels
    Channel layout              : L R C LFE Ls Rs
    Sampling rate               : 48.0 kHz
    Frame rate                  : 31.250 FPS (1536 SPF)
    Bit depth                   : 16 bits
    Compression mode            : Lossy
    Delay relative to video     : -42 ms
    Stream size                 : 291 MiB (7%)
    Title                       : Inglés [CinemaniaHDD]
    Language                    : English
    Service kind                : Complete Main
    Default                     : No
    Forced                      : No

    Text #1
    ID                          : 4
    Format                      : UTF-8
    Codec ID                    : S_TEXT/UTF8
    Codec ID/Info               : UTF-8 Plain Text
    Duration                    : 1 h 31 min
    Bit rate                    : 0 b/s
    Count of elements           : 11
    Stream size                 : 241 Bytes (0%)
    Title                       : Forzados [CinemaniaHDD]
    Language                    : Spanish
    Default                     : Yes
    Forced                      : No

    Text #2
    ID                          : 5
    Format                      : UTF-8
    Codec ID                    : S_TEXT/UTF8
    Codec ID/Info               : UTF-8 Plain Text
    Duration                    : 1 h 45 min
    Bit rate                    : 31 b/s
    Count of elements           : 893
    Stream size                 : 24.6 KiB (0%)
    Title                       : Español latino [CinemaniaHDD]
    Language                    : Spanish
    Default                     : No
    Forced                      : No

    Menu
    00:00:00.000                : en:1
    00:07:58.000                : en:2
    00:15:34.000                : en:3
    00:24:02.000                : en:4
    00:32:57.000                : en:5
    00:43:00.000                : en:6
    00:52:29.000                : en:7
    01:02:07.000                : en:8
    01:06:14.000                : en:9
    01:15:05.000                : en:10
    01:21:45.000                : en:11
    01:30:22.000                : en:12
    01:39:58.000                : en:13

  • Peso: 3.99 GiB

Sinopsis

Annabelle Vuelve a Casa es la tercera entrega de la saga «Annabelle» de New Line Cinema, protagonizada por la infame y siniestra muñeca del universo «Expediente Warren».
Los demonólogos Ed y Lorraine Warren están decididos a evitar que Annabelle cause más estragos, así que llevan a la muñeca poseída a la sala de objetos bajo llave que tienen en su casa. La colocan «a salvo» en una vitrina sagrada bendecida por un sacerdote. Pero una terrorífica noche nada santa, Annabelle despierta a los espíritus malignos de la habitación que se fijan un nuevo objetivo: la hija de diez años de los Warren, Judy, y sus amigas.

Ficha técnica

  • Titulo original: Annabelle Comes Home
  • Fecha de lanzamiento: 26-06-2019 (United States of America)
  • Director: Gary Dauberman
  • Género: Terror

Video trailer de la película

Enlaces de descarga

Rip de Bluray

Descargar Annabelle 3: Viene a casa (2019) WEB-DL 1080p Latino




Aportes de DPeliculasHDmega la pass es:dpeliculashdmega.org Aportes de CinemaniaHD la pass es:cinemaniahdd.com
Guardado en : Terror

Películas relacionadas

descargar Annabelle 3: Viene a casa (2019) WEB-DL 1080p Latino WEBDL 1080p gratis, Annabelle 3: Viene a casa (2019) WEB-DL 1080p Latino WEBDL mega 1 link, Annabelle 3: Viene a casa (2019) WEB-DL 1080p Latino WEBDL pelicula completa, descargar Annabelle 3: Viene a casa (2019) WEB-DL 1080p Latino WEBDL gratis en mega.

Annabelle 3: Viene a casa (2019) WEB-DL 1080p Latino pelicula full hd, Annabelle 3: Viene a casa (2019) WEB-DL 1080p Latino mega latino, Annabelle 3: Viene a casa (2019) WEB-DL 1080p Latino 4k latino, Annabelle 3: Viene a casa (2019) WEB-DL 1080p Latino pelicula completa, Annabelle 3: Viene a casa (2019) WEB-DL 1080p Latino descargar gratis, descargar Annabelle 3: Viene a casa (2019) WEB-DL 1080p Latino pelicula latino, Annabelle 3: Viene a casa (2019) WEB-DL 1080p Latino 1 link mega, Annabelle 3: Viene a casa (2019) WEB-DL 1080p Latino 1 link google drive, Annabelle 3: Viene a casa (2019) WEB-DL 1080p Latino hd 1080p latino.
Comentarios 0