×

¿Problemas para descargar con Mozilla, EDGE? Deshabilita la opción "Abrir vinculos en una pestaña nueva" tal como lo muestra ésta imagen.

Annabelle 3 – Viene a casa (2019) 4K-UHD WEB-DL 2160p Latino

1.283 vistas

Información de Annabelle 3 – Viene a casa (2019) 4K-UHD WEB-DL 2160p Latino

Datos de la película

  • Calidad: 4K UHD
  • Audio: Español Latino AC3 5.1 iTunes - Ingles AC3 5.1 iTunes
  • Subtitulos: Español Latino SRT- FORZADOS SRT
  • Resolución: 3840x1608
  • Formato: MKV
  • Codec: H.265
  • Encoder: cinemaniahdd
  • Mediainfo: Clic para Mostrar Datos Ver
  • Annabelle 3 - Viene a casa (2019) 4K-UHD WEB-DL 2160p Latino.mkv
    Format                      : Matroska
    Format version              : Version 4
    File size                   : 19.0 GiB
    Duration                    : 1 h 46 min
    Overall bit rate            : 25.6 Mb/s
    Movie name                  : Annabelle 3 - Viene a casa (2019) 4K-UHD WEB-DL 2160p Latino
    Encoded date                : UTC 2019-09-17 16:51:07
    Writing application         : mkvmerge v35.0.0 ('All The Love In The World') 64-bit
    Writing library             : libebml v1.3.9 + libmatroska v1.5.2

    Video
    ID                          : 1
    Format                      : HEVC
    Format/Info                 : High Efficiency Video Coding
    Format profile              : Main 10@L5@High
    Codec ID                    : V_MPEGH/ISO/HEVC
    Duration                    : 1 h 46 min
    Bit rate                    : 24.6 Mb/s
    Width                       : 3 840 pixels
    Height                      : 1 608 pixels
    Original height             : 2 160 pixels
    Display aspect ratio        : 16:9
    Frame rate mode             : Constant
    Frame rate                  : 23.976 (23976/1000) FPS
    Original frame rate         : 23.976 (24000/1001) FPS
    Color space                 : YUV
    Chroma subsampling          : 4:2:0 (Type 2)
    Bit depth                   : 10 bits
    Bits/(Pixel*Frame)          : 0.166
    Stream size                 : 18.2 GiB (96%)
    Title                       : CinemaniaHDD
    Language                    : English
    Default                     : Yes
    Forced                      : No
    Color range                 : Limited
    Color primaries             : BT.709
    Transfer characteristics    : BT.709
    Matrix coefficients         : BT.709

    Audio #1
    ID                          : 2
    Format                      : AC-3
    Format/Info                 : Audio Coding 3
    Commercial name             : Dolby Digital
    Codec ID                    : A_AC3
    Duration                    : 1 h 46 min
    Bit rate mode               : Constant
    Bit rate                    : 384 kb/s
    Channel(s)                  : 6 channels
    Channel layout              : L R C LFE Ls Rs
    Sampling rate               : 48.0 kHz
    Frame rate                  : 31.250 FPS (1536 SPF)
    Bit depth                   : 16 bits
    Compression mode            : Lossy
    Delay relative to video     : -54 ms
    Stream size                 : 291 MiB (1%)
    Title                       : Español latino [CinemaniaHDD]
    Language                    : Spanish
    Service kind                : Complete Main
    Default                     : Yes
    Forced                      : No

    Audio #2
    ID                          : 3
    Format                      : E-AC-3 JOC
    Format/Info                 : Enhanced AC-3 with Joint Object Coding
    Commercial name             : Dolby Digital Plus with Dolby Atmos
    Codec ID                    : A_EAC3
    Duration                    : 1 h 46 min
    Bit rate mode               : Constant
    Bit rate                    : 640 kb/s
    Channel(s)                  : 6 channels
    Channel layout              : L R C LFE Ls Rs
    Sampling rate               : 48.0 kHz
    Frame rate                  : 31.250 FPS (1536 SPF)
    Compression mode            : Lossy
    Delay relative to video     : 25 ms
    Stream size                 : 485 MiB (2%)
    Title                       : Inglés [CinemaniaHDD]
    Language                    : English
    Service kind                : Complete Main
    Default                     : No
    Forced                      : No
    Complexity index            : 16
    Number of dynamic objects   : 15
    Bed channel count           : 1 channel
    Bed channel configuration   : LFE

    Text #1
    ID                          : 4
    Format                      : UTF-8
    Codec ID                    : S_TEXT/UTF8
    Codec ID/Info               : UTF-8 Plain Text
    Duration                    : 1 h 31 min
    Bit rate                    : 0 b/s
    Count of elements           : 11
    Stream size                 : 241 Bytes (0%)
    Title                       : Forzados [CinemaniaHDD]
    Language                    : Spanish
    Default                     : Yes
    Forced                      : Yes

    Text #2
    ID                          : 5
    Format                      : UTF-8
    Codec ID                    : S_TEXT/UTF8
    Codec ID/Info               : UTF-8 Plain Text
    Duration                    : 1 h 45 min
    Bit rate                    : 31 b/s
    Count of elements           : 893
    Stream size                 : 24.6 KiB (0%)
    Title                       : Español latino [CinemaniaHDD]
    Language                    : Spanish
    Default                     : No
    Forced                      : No

    Menu
    00:00:00.000                : en:Chapter 1
    00:07:58.000                : en:Chapter 2
    00:15:34.000                : en:Chapter 3
    00:24:02.000                : en:Chapter 4
    00:32:56.000                : en:Chapter 5
    00:43:00.000                : en:Chapter 6
    00:52:29.000                : en:Chapter 7
    01:02:07.000                : en:Chapter 8
    01:06:14.000                : en:Chapter 9
    01:15:05.000                : en:Chapter 10
    01:21:44.000                : en:Chapter 11
    01:30:22.000                : en:Chapter 12
    01:39:58.000                : en:Chapter 13

     

  • Peso: 19.0 GiB

Sinopsis

Descargar Annabelle 3 – Viene a casa (2019) 4K-UHD WEB-DL 2160p Latino, Annabelle Vuelve a Casa es la tercera entrega de la saga «Annabelle» de New Line Cinema, protagonizada por la infame y siniestra muñeca del universo «Expediente Warren».
Los demonólogos Ed y Lorraine Warren están decididos a evitar que Annabelle cause más estragos, así que llevan a la muñeca poseída a la sala de objetos bajo llave que tienen en su casa. La colocan «a salvo» en una vitrina sagrada bendecida por un sacerdote. Pero una terrorífica noche nada santa, Annabelle despierta a los espíritus malignos de la habitación que se fijan un nuevo objetivo: la hija de diez años de los Warren, Judy, y sus amigas.

Ficha técnica

  • Titulo original: Annabelle Comes Home
  • Fecha de lanzamiento: 26-06-2019 (United States of America)
  • Director: Gary Dauberman
  • Género: 4K UHD, Terror

Video trailer de la película

Enlaces de descarga

Rip de Bluray

Descargar Annabelle 3 – Viene a casa (2019) 4K-UHD WEB-DL 2160p Latino




Aportes de DPeliculasHDmega la pass es:dpeliculashdmega.org Aportes de CinemaniaHD la pass es:cinemaniahdd.com
Guardado en : 4K UHD , Terror

Películas relacionadas

  • El Ultimo Juego (2021) WEB-DL 1080p Latino

    El Ultimo Juego (2021) WEB-DL 1080p Latino

    2021
    El Ultimo Juego (2021) WEB-DL 1080p Latino

    1h 21m 2021

    Descargar El Ultimo Juego (2021) WEB-DL 1080p Latino. 6 extraños se despiertan dentro de una habitación...

    Director: John David Moffat IV

    Género: Drama

    Actores: Yasmin Irvine

  • Invitacion Al Infierno (2022) MA WEB-DL 1080p Latino

    Invitacion Al Infierno (2022) MA WEB-DL 1080p Latino

    2022
    Invitacion Al Infierno (2022) MA WEB-DL 1080p Latino

    1h 45m 2022

    Descargar Invitacion Al Infierno (2022) MA WEB-DL 1080p Latino. Tras la muerte de su madre y quedarse...

    Director: Jessica M. Thompson

    Género: Suspenso

    Actores: Virág Bárány

  • Tremors (1990) REMUX 4K HDR Latino – CMHDD

    Tremors (1990) REMUX 4K HDR Latino – CMHDD

    1990
    Tremors (1990) REMUX 4K HDR Latino – CMHDD

    1h 35m 1990

    En Perfección, un pequeño pueblo al borde del desierto de Nevada, algo parece suceder debajo de la...

    Director: Susan Bierbaum

    Género: Acción

    Actores: Victor Wong

descargar Annabelle 3 – Viene a casa (2019) 4K-UHD WEB-DL 2160p Latino 4K UHD 1080p gratis, Annabelle 3 – Viene a casa (2019) 4K-UHD WEB-DL 2160p Latino 4K UHD mega 1 link, Annabelle 3 – Viene a casa (2019) 4K-UHD WEB-DL 2160p Latino 4K UHD pelicula completa, descargar Annabelle 3 – Viene a casa (2019) 4K-UHD WEB-DL 2160p Latino 4K UHD gratis en mega.

Annabelle 3 – Viene a casa (2019) 4K-UHD WEB-DL 2160p Latino pelicula full hd, Annabelle 3 – Viene a casa (2019) 4K-UHD WEB-DL 2160p Latino mega latino, Annabelle 3 – Viene a casa (2019) 4K-UHD WEB-DL 2160p Latino 4k latino, Annabelle 3 – Viene a casa (2019) 4K-UHD WEB-DL 2160p Latino pelicula completa, Annabelle 3 – Viene a casa (2019) 4K-UHD WEB-DL 2160p Latino descargar gratis, descargar Annabelle 3 – Viene a casa (2019) 4K-UHD WEB-DL 2160p Latino pelicula latino, Annabelle 3 – Viene a casa (2019) 4K-UHD WEB-DL 2160p Latino 1 link mega, Annabelle 3 – Viene a casa (2019) 4K-UHD WEB-DL 2160p Latino 1 link google drive, Annabelle 3 – Viene a casa (2019) 4K-UHD WEB-DL 2160p Latino hd 1080p latino.
Comentarios 0