Annabelle (2014) REMUX 1080p Latino

973 vistas
1 estrella2 estrellas3 estrellas4 estrellas5 estrellas (3 votos, promedio: 5,00 de 5)
Cargando...

Información de Annabelle (2014) REMUX 1080p Latino

Datos de la película

  • Calidad: Full 1080p
  • Audio: Español Latino AC3 5.1 BLURAY - Ingles DTS 5.1 BLURAY
  • Subtitulos: Español Latino PGS - Ingles PGS
  • Resolución: 1920x1080p
  • Formato: MKV
  • Codec: H.264
  • Encoder: Dracarys | CinefiloCool
  • Mediainfo: Clic para Mostrar Datos Ver
  • Annabelle (2014) REMUX 1080p Latino-CMHDD.mkv
    Format                      : Matroska
    Format version              : Version 4
    File size                   : 20.2 GiB
    Duration                    : 1 h 38 min
    Overall bit rate mode       : Variable
    Overall bit rate            : 29.3 Mb/s
    Movie name                  : Annabelle (2014) CinemaniaHDD.Net
    Encoded date                : UTC 2021-06-13 07:46:20
    Writing application         : mkvmerge v56.1.0 ('My Friend') 64-bit
    Writing library             : libebml v1.4.2 + libmatroska v1.6.4
    Attachments                 : CINEMANIAHD.png

    Video
    ID                          : 1
    Format                      : AVC
    Format/Info                 : Advanced Video Codec
    Format profile              : High@L4.1
    Format settings             : CABAC / 2 Ref Frames
    Format settings, CABAC      : Yes
    Format settings, Reference  : 2 frames
    Format settings, GOP        : M=1, N=10
    Codec ID                    : V_MPEG4/ISO/AVC
    Duration                    : 1 h 38 min
    Bit rate mode               : Variable
    Bit rate                    : 25.4 Mb/s
    Width                       : 1 920 pixels
    Height                      : 1 080 pixels
    Display aspect ratio        : 16:9
    Frame rate mode             : Constant
    Frame rate                  : 23.976 (24000/1001) FPS
    Color space                 : YUV
    Chroma subsampling          : 4:2:0
    Bit depth                   : 8 bits
    Scan type                   : Progressive
    Bits/(Pixel*Frame)          : 0.511
    Stream size                 : 17.5 GiB (87%)
    Title                       : REMUX HD1080p [CinemaniaHDD]
    Language                    : English
    Default                     : Yes
    Forced                      : No

    Audio #1
    ID                          : 2
    Format                      : AC-3
    Format/Info                 : Audio Coding 3
    Commercial name             : Dolby Digital
    Codec ID                    : A_AC3
    Duration                    : 1 h 38 min
    Bit rate mode               : Constant
    Bit rate                    : 640 kb/s
    Channel(s)                  : 6 channels
    Channel layout              : L R C LFE Ls Rs
    Sampling rate               : 48.0 kHz
    Frame rate                  : 31.250 FPS (1536 SPF)
    Compression mode            : Lossy
    Stream size                 : 452 MiB (2%)
    Title                       : Español Latino [CinemaniaHDD]
    Language                    : Spanish
    Service kind                : Complete Main
    Default                     : Yes
    Forced                      : No

    Audio #2
    ID                          : 3
    Format                      : DTS XLL
    Format/Info                 : Digital Theater Systems
    Commercial name             : DTS-HD Master Audio
    Codec ID                    : A_DTS
    Duration                    : 1 h 38 min
    Bit rate mode               : Variable
    Bit rate                    : 3 207 kb/s
    Channel(s)                  : 6 channels
    Channel layout              : C L R Ls Rs LFE
    Sampling rate               : 48.0 kHz
    Frame rate                  : 93.750 FPS (512 SPF)
    Bit depth                   : 24 bits
    Compression mode            : Lossless
    Stream size                 : 2.21 GiB (11%)
    Title                       : Ingles [CinemaniaHDD]
    Language                    : English
    Default                     : No
    Forced                      : No

    Text #1
    ID                          : 4
    Format                      : PGS
    Muxing mode                 : zlib
    Codec ID                    : S_HDMV/PGS
    Codec ID/Info               : Picture based subtitle format used on BDs/HD-DVDs
    Duration                    : 1 h 38 min
    Bit rate                    : 21.8 kb/s
    Count of elements           : 1896
    Stream size                 : 15.3 MiB (0%)
    Title                       : Español-PGS [CinemaniaHDD]
    Language                    : Spanish
    Default                     : No
    Forced                      : No

    Text #2
    ID                          : 5
    Format                      : PGS
    Muxing mode                 : zlib
    Codec ID                    : S_HDMV/PGS
    Codec ID/Info               : Picture based subtitle format used on BDs/HD-DVDs
    Duration                    : 1 h 37 min
    Bit rate                    : 27.5 kb/s
    Count of elements           : 2116
    Stream size                 : 19.3 MiB (0%)
    Title                       : Ingles-PGS [CinemaniaHDD]
    Language                    : English
    Default                     : No
    Forced                      : No

    Text #3
    ID                          : 6
    Format                      : UTF-8
    Codec ID                    : S_TEXT/UTF8
    Codec ID/Info               : UTF-8 Plain Text
    Duration                    : 1 h 31 min
    Bit rate                    : 0 b/s
    Count of elements           : 13
    Stream size                 : 323 Bytes (0%)
    Title                       : Forzados-SRT [CinemaniaHDD]
    Language                    : Spanish
    Default                     : Yes
    Forced                      : No

    Text #4
    ID                          : 7
    Format                      : UTF-8
    Codec ID                    : S_TEXT/UTF8
    Codec ID/Info               : UTF-8 Plain Text
    Duration                    : 1 h 33 min
    Bit rate                    : 40 b/s
    Count of elements           : 947
    Stream size                 : 27.7 KiB (0%)
    Title                       : Español-SRT [CinemaniaHDD]
    Language                    : Spanish
    Default                     : No
    Forced                      : No

    Menu
    00:00:00.000                : 00:00:00.000
    00:11:58.092                : 00:11:58.092
    00:19:55.152                : 00:19:55.152
    00:30:13.603                : 00:30:13.603
    00:39:09.973                : 00:39:09.973
    00:51:15.489                : 00:51:15.489
    00:59:49.169                : 00:59:49.169
    01:10:05.159                : 01:10:05.159
    01:20:25.279                : 01:20:25.279
    01:31:54.008                : 01:31:54.008
    01:34:42.677                : 01:34:42.677

  • Peso: 20.2 GiB

Sinopsis

Descargar Annabelle (2014) REMUX 1080p Latino. John Form encuentra el regalo perfecto para su mujer embarazada, Mia: una preciosa e inusual muñeca vintage que lleva un vestido de novia blanco inmaculado. Sin embargo, la alegría de Mia al recibir a Annabelle no dura mucho. Durante una espantosa noche la pareja ve como miembros de una secta satánica invaden su hogar y los atacan brutalmente. No sólo dejan sangre derramada y terror tras su visita…los miembros de la secta conjuran a un ente de tal maldad que nada de lo que han hecho se compara al siniestro camino a la maldición que ahora es… Annabelle.

Nota:
Disponible Solo Para VIP!!!

Ficha técnica

Video trailer de la película

Enlaces de descarga

Rip de Bluray

Descargar Annabelle (2014) REMUX 1080p Latino


Aportes de DPeliculasHDmega la pass es:dpeliculashdmega.org Aportes de CinemaniaHD la pass es:cinemaniahdd.com
Guardado en : Remux , Terror
Etiquetado en :

Películas relacionadas

  • The Hatred (2017) WEB-DL 1080p Latino

    The Hatred (2017) WEB-DL 1080p Latino

    2017
    The Hatred (2017) WEB-DL 1080p Latino

    5.0 1h 34m 2017

    Cuatro mujeres jóvenes viajan a la nueva casa de campo de su profesor universitario para una escapada...

    Director: Michael G. Kehoe

    Género: Suspenso

    Actores: Tim DeZarn

  • La Ciudad de las Mentiras (2018) REMUX 1080p Latino

    La Ciudad de las Mentiras (2018) REMUX 1080p Latino

    2018
    La Ciudad de las Mentiras (2018) REMUX 1080p Latino

    5.0 1h 52m 2018

    Descargar La Ciudad de las Mentiras (2018) REMUX 1080p Latino. Narra la investigación de los asesinatos...

    Director: Brad Furman

    Género: Crimen

    Actores: Xander Berkeley

  • Valle de los Dioses (2019) REMUX 1080p Latino

    Valle de los Dioses (2019) REMUX 1080p Latino

    2019
    Valle de los Dioses (2019) REMUX 1080p Latino

    5.0 2h 11m 2019

    Descargar Valle de los Dioses (2019) REMUX 1080p Latino. La película entrelaza la sabiduría tradicional...

    Director: Lech Majewski

    Género: Drama

    Actores: Keir Dullea

Annabelle (2014) REMUX 1080p Latino pelicula full hd, Annabelle (2014) REMUX 1080p Latino mega latino, Annabelle (2014) REMUX 1080p Latino 4k latino, Annabelle (2014) REMUX 1080p Latino pelicula completa, Annabelle (2014) REMUX 1080p Latino descargar gratis, descargar Annabelle (2014) REMUX 1080p Latino pelicula latino, Annabelle (2014) REMUX 1080p Latino 1 link mega, Annabelle (2014) REMUX 1080p Latino 1 link google drive, Annabelle (2014) REMUX 1080p Latino hd 1080p latino.
Comentarios 1
  • Octavio Cesar posadas Martinez - 23 septiembre, 2019

    Gracias por annabelle 1 Remux, saludos