×

¿Problemas para descargar con Mozilla, EDGE? Deshabilita la opción "Abrir vinculos en una pestaña nueva" tal como lo muestra ésta imagen.

Annabelle (2014) Full HD 1080p Latino

268 vistas

Información de Annabelle (2014) Full HD 1080p Latino

Datos de la película

  • Calidad: Full 1080p
  • Audio: Español Latino AC3 5.1 BLURAY - Ingles DTS 5.1 BLURAY
  • Subtitulos: Español Latino PGS - Ingles PGS
  • Resolución: 1920x1080p
  • Formato: MKV
  • Codec: H.264
  • Encoder: CinefiloCool
  • Mediainfo: Clic para Mostrar Datos Ver
  • Annabelle (2014) Full HD 1080p Latino-CMHDD.mkv
    Format                      : Matroska
    Format version              : Version 4
    File size                   : 3.50 GiB
    Duration                    : 1 h 38 min
    Overall bit rate            : 5 070 kb/s
    Movie name                  : Annabelle (2014) CinemaniaHDD.Net
    Encoded date                : UTC 2021-06-13 23:00:56
    Writing application         : mkvmerge v56.1.0 ('My Friend') 64-bit
    Writing library             : libebml v1.4.2 + libmatroska v1.6.4
    Attachments                 : CINEMANIAHD.png

    Video
    ID                          : 1
    Format                      : AVC
    Format/Info                 : Advanced Video Codec
    Format profile              : High@L4.1
    Format settings             : CABAC / 4 Ref Frames
    Format settings, CABAC      : Yes
    Format settings, Reference  : 4 frames
    Codec ID                    : V_MPEG4/ISO/AVC
    Duration                    : 1 h 38 min
    Bit rate                    : 2 897 kb/s
    Width                       : 1 920 pixels
    Height                      : 1 080 pixels
    Display aspect ratio        : 16:9
    Frame rate mode             : Constant
    Frame rate                  : 23.976 (24000/1001) FPS
    Color space                 : YUV
    Chroma subsampling          : 4:2:0
    Bit depth                   : 8 bits
    Scan type                   : Progressive
    Bits/(Pixel*Frame)          : 0.058
    Stream size                 : 2.00 GiB (57%)
    Title                       : Full HD1080p [CinemaniaHDD]
    Writing library             : x264 core 157 r2935 545de2f
    Encoding settings           : cabac=1 / ref=4 / deblock=1:0:0 / analyse=0x3:0x133 / me=tesa / subme=11 / psy=1 / psy_rd=1.00:0.00 / mixed_ref=1 / me_range=24 / chroma_me=1 / trellis=2 / 8x8dct=1 / cqm=0 / deadzone=21,11 / fast_pskip=0 / chroma_qp_offset=-2 / threads=24 / lookahead_threads=6 / sliced_threads=0 / nr=0 / decimate=1 / interlaced=0 / bluray_compat=0 / constrained_intra=0 / bframes=16 / b_pyramid=2 / b_adapt=2 / b_bias=0 / direct=3 / weightb=1 / open_gop=0 / weightp=2 / keyint=240 / keyint_min=24 / scenecut=40 / intra_refresh=0 / rc_lookahead=60 / rc=crf / mbtree=1 / crf=20.0 / qcomp=0.60 / qpmin=0 / qpmax=69 / qpstep=4 / vbv_maxrate=62500 / vbv_bufsize=78125 / crf_max=0.0 / nal_hrd=none / filler=0 / ip_ratio=1.40 / aq=1:1.00
    Default                     : Yes
    Forced                      : Yes
    Color range                 : Limited
    Color primaries             : BT.709
    Transfer characteristics    : BT.709
    Matrix coefficients         : BT.709

    Audio #1
    ID                          : 2
    Format                      : AC-3
    Format/Info                 : Audio Coding 3
    Commercial name             : Dolby Digital
    Codec ID                    : A_AC3
    Duration                    : 1 h 38 min
    Bit rate mode               : Constant
    Bit rate                    : 640 kb/s
    Channel(s)                  : 6 channels
    Channel layout              : L R C LFE Ls Rs
    Sampling rate               : 48.0 kHz
    Frame rate                  : 31.250 FPS (1536 SPF)
    Compression mode            : Lossy
    Stream size                 : 452 MiB (13%)
    Title                       : Español Latino [CinemaniaHDD]
    Language                    : Spanish
    Service kind                : Complete Main
    Default                     : Yes
    Forced                      : No

    Audio #2
    ID                          : 3
    Format                      : DTS
    Format/Info                 : Digital Theater Systems
    Codec ID                    : A_DTS
    Duration                    : 1 h 38 min
    Bit rate mode               : Constant
    Bit rate                    : 1 509 kb/s
    Channel(s)                  : 6 channels
    Channel layout              : C L R Ls Rs LFE
    Sampling rate               : 48.0 kHz
    Frame rate                  : 93.750 FPS (512 SPF)
    Bit depth                   : 24 bits
    Compression mode            : Lossy
    Stream size                 : 1.04 GiB (30%)
    Title                       : Ingles [CinemaniaHDD]
    Language                    : English
    Default                     : No
    Forced                      : No

    Text #1
    ID                          : 4
    Format                      : PGS
    Muxing mode                 : zlib
    Codec ID                    : S_HDMV/PGS
    Codec ID/Info               : Picture based subtitle format used on BDs/HD-DVDs
    Duration                    : 1 h 38 min
    Bit rate                    : 21.8 kb/s
    Count of elements           : 1896
    Stream size                 : 15.3 MiB (0%)
    Title                       : Español-PGS [CinemaniaHDD]
    Language                    : Spanish
    Default                     : No
    Forced                      : No

    Text #2
    ID                          : 5
    Format                      : PGS
    Muxing mode                 : zlib
    Codec ID                    : S_HDMV/PGS
    Codec ID/Info               : Picture based subtitle format used on BDs/HD-DVDs
    Duration                    : 1 h 37 min
    Bit rate                    : 27.5 kb/s
    Count of elements           : 2116
    Stream size                 : 19.3 MiB (1%)
    Title                       : Ingles-PGS [CinemaniaHDD]
    Language                    : English
    Default                     : No
    Forced                      : No

    Text #3
    ID                          : 6
    Format                      : UTF-8
    Codec ID                    : S_TEXT/UTF8
    Codec ID/Info               : UTF-8 Plain Text
    Duration                    : 1 h 31 min
    Bit rate                    : 0 b/s
    Count of elements           : 13
    Stream size                 : 323 Bytes (0%)
    Title                       : Forzados-SRT [CinemaniaHDD]
    Language                    : Spanish
    Default                     : Yes
    Forced                      : No

    Text #4
    ID                          : 7
    Format                      : UTF-8
    Codec ID                    : S_TEXT/UTF8
    Codec ID/Info               : UTF-8 Plain Text
    Duration                    : 1 h 33 min
    Bit rate                    : 40 b/s
    Count of elements           : 947
    Stream size                 : 27.7 KiB (0%)
    Title                       : Español-SRT [CinemaniaHDD]
    Language                    : Spanish
    Default                     : No
    Forced                      : No

    Menu
    00:00:00.000                : 00:00:00.000
    00:11:58.092                : 00:11:58.092
    00:19:55.152                : 00:19:55.152
    00:30:13.603                : 00:30:13.603
    00:39:09.973                : 00:39:09.973
    00:51:15.489                : 00:51:15.489
    00:59:49.169                : 00:59:49.169
    01:10:05.159                : 01:10:05.159
    01:20:25.279                : 01:20:25.279
    01:31:54.008                : 01:31:54.008
    01:34:42.677                : 01:34:42.677

  • Peso: 3.50 GiB

Sinopsis

Descargar Annabelle (2014) Full HD 1080p Latino. John Form encuentra el regalo perfecto para su mujer embarazada, Mia: una preciosa e inusual muñeca vintage que lleva un vestido de novia blanco inmaculado. Sin embargo, la alegría de Mia al recibir a Annabelle no dura mucho. Durante una espantosa noche la pareja ve como miembros de una secta satánica invaden su hogar y los atacan brutalmente. No sólo dejan sangre derramada y terror tras su visita…los miembros de la secta conjuran a un ente de tal maldad que nada de lo que han hecho se compara al siniestro camino a la maldición que ahora es… Annabelle.

Ficha técnica

Video trailer de la película

Enlaces de descarga

Rip de Bluray

Descargar Annabelle (2014) Full HD 1080p Latino




Aportes de DPeliculasHDmega la pass es:dpeliculashdmega.org Aportes de CinemaniaHD la pass es:cinemaniahdd.com
Etiquetado en :

Películas relacionadas

descargar Annabelle (2014) Full HD 1080p Latino Full 1080p 1080p gratis, Annabelle (2014) Full HD 1080p Latino Full 1080p mega 1 link, Annabelle (2014) Full HD 1080p Latino Full 1080p pelicula completa, descargar Annabelle (2014) Full HD 1080p Latino Full 1080p gratis en mega.

Annabelle (2014) Full HD 1080p Latino pelicula full hd, Annabelle (2014) Full HD 1080p Latino mega latino, Annabelle (2014) Full HD 1080p Latino 4k latino, Annabelle (2014) Full HD 1080p Latino pelicula completa, Annabelle (2014) Full HD 1080p Latino descargar gratis, descargar Annabelle (2014) Full HD 1080p Latino pelicula latino, Annabelle (2014) Full HD 1080p Latino 1 link mega, Annabelle (2014) Full HD 1080p Latino 1 link google drive, Annabelle (2014) Full HD 1080p Latino hd 1080p latino.
Comentarios 0