×

¿Problemas para descargar con Mozilla, EDGE? Deshabilita la opción "Abrir vinculos en una pestaña nueva" tal como lo muestra ésta imagen.

Anna (2021) Primera Temporada WEB-DL 1080p Latino

560 vistas

Información de Anna (2021) Primera Temporada WEB-DL 1080p Latino

Datos de la película

  • Calidad: 1080p
  • Audio: Se especifica abajo de la Sinopsis
  • Subtitulos: Ingles SRT
  • Resolución: 1920x1080
  • Formato: MKV
  • Codec: H.264
  • Encoder: cinemaniahdd
  • Mediainfo: Clic para Mostrar Datos Ver
  • Anna T01E01 WEB-DL 1080p Latino [CNMNHDD].mkv
    Format                      : Matroska
    Format version              : Version 4
    File size                   : 2.25 GiB
    Duration                    : 44 min 56 s
    Overall bit rate mode       : Variable
    Overall bit rate            : 7 165 kb/s
    Movie name                  : Anna S01E01 - The Forest Protects Us [CNMNHDD]
    Encoded date                : UTC 2022-06-14 23:56:23
    Writing application         : mkvmerge v56.1.0 ('My Friend') 64-bit
    Writing library             : libebml v1.4.2 + libmatroska v1.6.4

    Video
    ID                          : 1
    Format                      : AVC
    Format/Info                 : Advanced Video Codec
    Format profile              : High@L4
    Format settings             : CABAC / 4 Ref Frames
    Format settings, CABAC      : Yes
    Format settings, Reference  : 4 frames
    Codec ID                    : V_MPEG4/ISO/AVC
    Duration                    : 44 min 56 s
    Bit rate mode               : Variable
    Bit rate                    : 6 395 kb/s
    Maximum bit rate            : 12.7 Mb/s
    Width                       : 1 920 pixels
    Height                      : 1 080 pixels
    Display aspect ratio        : 16:9
    Frame rate mode             : Constant
    Frame rate                  : 25.000 FPS
    Color space                 : YUV
    Chroma subsampling          : 4:2:0
    Bit depth                   : 8 bits
    Scan type                   : Progressive
    Bits/(Pixel*Frame)          : 0.123
    Stream size                 : 2.01 GiB (89%)
    Title                       : CinemaniaHDD
    Default                     : Yes
    Forced                      : No
    Color range                 : Limited
    Color primaries             : BT.709
    Transfer characteristics    : BT.709
    Matrix coefficients         : BT.709

    Audio #1
    ID                          : 2
    Format                      : AC-3
    Format/Info                 : Audio Coding 3
    Commercial name             : Dolby Digital
    Codec ID                    : A_AC3
    Duration                    : 44 min 56 s
    Bit rate mode               : Constant
    Bit rate                    : 384 kb/s
    Channel(s)                  : 2 channels
    Channel layout              : L R
    Sampling rate               : 48.0 kHz
    Frame rate                  : 31.250 FPS (1536 SPF)
    Compression mode            : Lossy
    Stream size                 : 123 MiB (5%)
    Title                       : Español latino [CinemaniaHDD]
    Language                    : Spanish
    Service kind                : Complete Main
    Default                     : Yes
    Forced                      : No

    Audio #2
    ID                          : 3
    Format                      : AC-3
    Format/Info                 : Audio Coding 3
    Commercial name             : Dolby Digital
    Codec ID                    : A_AC3
    Duration                    : 44 min 56 s
    Bit rate mode               : Constant
    Bit rate                    : 384 kb/s
    Channel(s)                  : 6 channels
    Channel layout              : L R C LFE Ls Rs
    Sampling rate               : 48.0 kHz
    Frame rate                  : 31.250 FPS (1536 SPF)
    Compression mode            : Lossy
    Stream size                 : 123 MiB (5%)
    Title                       : Italiano [CinemaniaHDD]
    Language                    : Italian
    Service kind                : Complete Main
    Default                     : No
    Forced                      : No

    Text #1
    ID                          : 4
    Format                      : UTF-8
    Codec ID                    : S_TEXT/UTF8
    Codec ID/Info               : UTF-8 Plain Text
    Duration                    : 41 min 3 s
    Bit rate                    : 25 b/s
    Count of elements           : 242
    Stream size                 : 7.56 KiB (0%)
    Title                       : Inglés [CinemaniaHDD]
    Language                    : English
    Default                     : No
    Forced                      : No

    Text #2
    ID                          : 5
    Format                      : UTF-8
    Codec ID                    : S_TEXT/UTF8
    Codec ID/Info               : UTF-8 Plain Text
    Duration                    : 42 min 37 s
    Bit rate                    : 29 b/s
    Count of elements           : 318
    Stream size                 : 9.33 KiB (0%)
    Title                       : Inglés (SDH) [CinemaniaHDD]
    Language                    : English
    Default                     : No
    Forced                      : No

    Menu
    00:00:00.000                : Chapter 1
    00:02:25.400                : Intro
    00:03:01.280                : Chapter 2
    00:44:17.200                : Credits

     

  • Peso: 2.25 GiB Aprox ---- 16 GiB in 6 Chapters.

Sinopsis

Un misterioso virus ha llevado a la humanidad al borde de la extinción. Anna vive con su hermano Astor. Un día como otro cualquiera, Anna sale en busca de alimento y, cuando llega a casa, Astor ya no está. Alguien lo ha secuestrado.

Español Latino AC3 2.0 WEB-DL – Italiano AC3 5.1 WEB-DL

Ficha técnica

Video trailer de la película

Enlaces de descarga

Rip de Bluray

Descargar Anna (2021) Primera Temporada WEB-DL 1080p Latino




Aportes de DPeliculasHDmega la pass es:dpeliculashdmega.org Aportes de CinemaniaHD la pass es:cinemaniahdd.com
Guardado en : Drama , Misterio , Series

Películas relacionadas

descargar Anna (2021) Primera Temporada WEB-DL 1080p Latino 1080p 1080p gratis, Anna (2021) Primera Temporada WEB-DL 1080p Latino 1080p mega 1 link, Anna (2021) Primera Temporada WEB-DL 1080p Latino 1080p serie completa, descargar Anna (2021) Primera Temporada WEB-DL 1080p Latino 1080p gratis en mega.

Anna (2021) Primera Temporada WEB-DL 1080p Latino pelicula full hd, Anna (2021) Primera Temporada WEB-DL 1080p Latino mega latino, Anna (2021) Primera Temporada WEB-DL 1080p Latino 4k latino, Anna (2021) Primera Temporada WEB-DL 1080p Latino pelicula completa, Anna (2021) Primera Temporada WEB-DL 1080p Latino descargar gratis, descargar Anna (2021) Primera Temporada WEB-DL 1080p Latino pelicula latino, Anna (2021) Primera Temporada WEB-DL 1080p Latino 1 link mega, Anna (2021) Primera Temporada WEB-DL 1080p Latino 1 link google drive, Anna (2021) Primera Temporada WEB-DL 1080p Latino hd 1080p latino.
Comentarios 0