×

¿Problemas para descargar con Mozilla, EDGE? Deshabilita la opción "Abrir vinculos en una pestaña nueva" tal como lo muestra ésta imagen.

Anna (2019) WEBL-DL AMZN 1080p Latino

1.575 vistas

Información de Anna (2019) WEBL-DL AMZN 1080p Latino

anna 56889 poster

Datos de la película

  • Calidad: WEBDL
  • Audio: Español Latino AC3 5.1 DVD - Ingles AC3 5.1 iTunes
  • Subtitulos: Español Latino SRT
  • Resolución: 1920x800
  • Formato: MKV
  • Codec: H.264
  • Encoder: NTG
  • Mediainfo: Clic para Mostrar Datos Ver
  • Anna (2019) WEBL-DL AMZN 1080p Latino.mkv
    Format                      : Matroska
    Format version              : Version 4
    File size                   : 7.17 GiB
    Duration                    : 1 h 58 min
    Overall bit rate            : 8 624 kb/s
    Encoded date                : UTC 2019-09-12 22:16:52
    Writing application         : mkvmerge v35.0.0 ('All The Love In The World') 64-bit
    Writing library             : libebml v1.3.9 + libmatroska v1.5.2

    Video
    ID                          : 1
    Format                      : AVC
    Format/Info                 : Advanced Video Codec
    Format profile              : High@L4
    Format settings             : CABAC / 4 Ref Frames
    Format settings, CABAC      : Yes
    Format settings, ReFrames   : 4 frames
    Codec ID                    : V_MPEG4/ISO/AVC
    Duration                    : 1 h 58 min
    Bit rate mode               : Constant
    Bit rate                    : 7 598 kb/s
    Nominal bit rate            : 10 000 kb/s
    Width                       : 1 920 pixels
    Height                      : 800 pixels
    Display aspect ratio        : 2.40:1
    Frame rate mode             : Constant
    Frame rate                  : 23.976 (24000/1001) FPS
    Color space                 : YUV
    Chroma subsampling          : 4:2:0
    Bit depth                   : 8 bits
    Scan type                   : Progressive
    Bits/(Pixel*Frame)          : 0.206
    Stream size                 : 6.31 GiB (88%)
    Default                     : Yes
    Forced                      : No
    Color range                 : Limited
    Color primaries             : BT.709
    Transfer characteristics    : BT.709
    Matrix coefficients         : BT.709

    Audio #1
    ID                          : 2
    Format                      : AC-3
    Format/Info                 : Audio Coding 3
    Commercial name             : Dolby Digital
    Codec ID                    : A_AC3
    Duration                    : 1 h 58 min
    Bit rate mode               : Constant
    Bit rate                    : 384 kb/s
    Channel(s)                  : 6 channels
    Channel layout              : L R C LFE Ls Rs
    Sampling rate               : 48.0 kHz
    Frame rate                  : 31.250 FPS (1536 SPF)
    Bit depth                   : 16 bits
    Compression mode            : Lossy
    Delay relative to video     : 8 ms
    Stream size                 : 327 MiB (4%)
    Language                    : Spanish
    Service kind                : Complete Main
    Default                     : Yes
    Forced                      : No

    Audio #2
    ID                          : 3
    Format                      : E-AC-3
    Format/Info                 : Enhanced AC-3
    Commercial name             : Dolby Digital Plus
    Codec ID                    : A_EAC3
    Duration                    : 1 h 58 min
    Bit rate mode               : Constant
    Bit rate                    : 640 kb/s
    Channel(s)                  : 6 channels
    Channel layout              : L R C LFE Ls Rs
    Sampling rate               : 48.0 kHz
    Frame rate                  : 31.250 FPS (1536 SPF)
    Compression mode            : Lossy
    Stream size                 : 545 MiB (7%)
    Language                    : English
    Service kind                : Complete Main
    Default                     : No
    Forced                      : No

    Text
    ID                          : 4
    Format                      : UTF-8
    Codec ID                    : S_TEXT/UTF8
    Codec ID/Info               : UTF-8 Plain Text
    Duration                    : 1 h 53 min
    Bit rate                    : 54 b/s
    Count of elements           : 1385
    Stream size                 : 45.2 KiB (0%)
    Language                    : Spanish
    Default                     : No
    Forced                      : No

  • Peso: 7.17 GiB

Sinopsis

Bajo la hipnotizante belleza de Anna Poliatova (Sasha Luss) se esconde un secreto que la lleva a poder desatar una imparable agilidad y fuerza, convirtiéndose así en una de las asesinas a sueldo más temidas por los gobiernos de todo el planeta.

Ficha técnica

  • Titulo original: Anna
  • Fecha de lanzamiento: 19-06-2019 (France, United States of America)
  • Director: Luc Besson
  • Género: Acción, Suspenso

Video trailer de la película

Enlaces de descarga

Rip de Bluray

Descargar Anna (2019) WEBL-DL AMZN 1080p Latino




Aportes de DPeliculasHDmega la pass es:dpeliculashdmega.org Aportes de CinemaniaHD la pass es:cinemaniahdd.com
Guardado en : Acción , Suspenso

Películas relacionadas

descargar Anna (2019) WEBL-DL AMZN 1080p Latino WEBDL 1080p gratis, Anna (2019) WEBL-DL AMZN 1080p Latino WEBDL mega 1 link, Anna (2019) WEBL-DL AMZN 1080p Latino WEBDL pelicula completa, descargar Anna (2019) WEBL-DL AMZN 1080p Latino WEBDL gratis en mega.

Anna (2019) WEBL-DL AMZN 1080p Latino pelicula full hd, Anna (2019) WEBL-DL AMZN 1080p Latino mega latino, Anna (2019) WEBL-DL AMZN 1080p Latino 4k latino, Anna (2019) WEBL-DL AMZN 1080p Latino pelicula completa, Anna (2019) WEBL-DL AMZN 1080p Latino descargar gratis, descargar Anna (2019) WEBL-DL AMZN 1080p Latino pelicula latino, Anna (2019) WEBL-DL AMZN 1080p Latino 1 link mega, Anna (2019) WEBL-DL AMZN 1080p Latino 1 link google drive, Anna (2019) WEBL-DL AMZN 1080p Latino hd 1080p latino.
Comentarios 0