×

¿Problemas para descargar con Mozilla, EDGE? Deshabilita la opción "Abrir vinculos en una pestaña nueva" tal como lo muestra ésta imagen.

Anna (2019) Full HD 1080p Latino

2.398 vistas

Información de Anna (2019) Full HD 1080p Latino

Datos de la película

  • Calidad: Full 1080p
  • Audio: Español Latino AC3 5.1 BLURAY - Ingles DTS 5.1 BLURAY
  • Subtitulos: Español Latino PGS - Ingles PGS
  • Resolución: 1920x1080p
  • Formato: MKV
  • Codec: H.264
  • Encoder: CinefiloCool
  • Mediainfo: Clic para Mostrar Datos Ver
  • Anna - El peligro tiene nombre (2019) Full HD 1080p Latino-CMHDD.mkv
    Format                      : Matroska
    Format version              : Version 4
    File size                   : 4.46 GiB
    Duration                    : 1 h 58 min
    Overall bit rate            : 5 363 kb/s
    Movie name                  : CinemaniaHDD.Net
    Encoded date                : UTC 2019-09-19 03:44:51
    Writing application         : mkvmerge v35.0.0 ('All The Love In The World') 64-bit
    Writing library             : libebml v1.3.9 + libmatroska v1.5.2
    Attachments                 : CINEMANIAHD.png

    Video
    ID                          : 1
    Format                      : AVC
    Format/Info                 : Advanced Video Codec
    Format profile              : High@L4.1
    Format settings             : CABAC / 4 Ref Frames
    Format settings, CABAC      : Yes
    Format settings, ReFrames   : 4 frames
    Codec ID                    : V_MPEG4/ISO/AVC
    Duration                    : 1 h 58 min
    Bit rate                    : 3 371 kb/s
    Width                       : 1 920 pixels
    Height                      : 1 080 pixels
    Display aspect ratio        : 16:9
    Frame rate mode             : Constant
    Frame rate                  : 23.976 (24000/1001) FPS
    Color space                 : YUV
    Chroma subsampling          : 4:2:0
    Bit depth                   : 8 bits
    Scan type                   : Progressive
    Bits/(Pixel*Frame)          : 0.068
    Stream size                 : 2.80 GiB (63%)
    Title                       : Full HD1080p [Bluray]
    Writing library             : x264 core 157 r2935 545de2f
    Encoding settings           : cabac=1 / ref=4 / deblock=1:0:0 / analyse=0x3:0x133 / me=tesa / subme=11 / psy=1 / psy_rd=1.00:0.00 / mixed_ref=1 / me_range=24 / chroma_me=1 / trellis=2 / 8x8dct=1 / cqm=0 / deadzone=21,11 / fast_pskip=0 / chroma_qp_offset=-2 / threads=34 / lookahead_threads=8 / sliced_threads=0 / nr=0 / decimate=1 / interlaced=0 / bluray_compat=0 / constrained_intra=0 / bframes=16 / b_pyramid=2 / b_adapt=2 / b_bias=0 / direct=3 / weightb=1 / open_gop=0 / weightp=2 / keyint=240 / keyint_min=24 / scenecut=40 / intra_refresh=0 / rc_lookahead=60 / rc=crf / mbtree=1 / crf=20.0 / qcomp=0.60 / qpmin=0 / qpmax=69 / qpstep=4 / vbv_maxrate=62500 / vbv_bufsize=78125 / crf_max=0.0 / nal_hrd=none / filler=0 / ip_ratio=1.40 / aq=1:1.00
    Default                     : Yes
    Forced                      : Yes
    Color range                 : Limited
    Color primaries             : BT.709
    Transfer characteristics    : BT.709
    Matrix coefficients         : BT.709

    Audio #1
    ID                          : 2
    Format                      : AC-3
    Format/Info                 : Audio Coding 3
    Commercial name             : Dolby Digital
    Codec ID                    : A_AC3
    Duration                    : 1 h 58 min
    Bit rate mode               : Constant
    Bit rate                    : 448 kb/s
    Channel(s)                  : 6 channels
    Channel layout              : L R C LFE Ls Rs
    Sampling rate               : 48.0 kHz
    Frame rate                  : 31.250 FPS (1536 SPF)
    Bit depth                   : 16 bits
    Compression mode            : Lossy
    Stream size                 : 381 MiB (8%)
    Title                       : AC3_5.1_Bluray_Esp
    Language                    : Spanish
    Service kind                : Complete Main
    Default                     : Yes
    Forced                      : Yes

    Audio #2
    ID                          : 3
    Format                      : DTS
    Format/Info                 : Digital Theater Systems
    Codec ID                    : A_DTS
    Duration                    : 1 h 58 min
    Bit rate mode               : Constant
    Bit rate                    : 1 509 kb/s
    Channel(s)                  : 6 channels
    Channel layout              : C L R Ls Rs LFE
    Sampling rate               : 48.0 kHz
    Frame rate                  : 93.750 FPS (512 SPF)
    Bit depth                   : 24 bits
    Compression mode            : Lossy
    Stream size                 : 1.25 GiB (28%)
    Title                       : DTS_5.1_Bluray_Eng
    Language                    : English
    Default                     : No
    Forced                      : No

    Text #1
    ID                          : 4
    Format                      : PGS
    Muxing mode                 : zlib
    Codec ID                    : S_HDMV/PGS
    Codec ID/Info               : Picture based subtitle format used on BDs/HD-DVDs
    Duration                    : 1 min 10 s
    Bit rate                    : 4 786 b/s
    Count of elements           : 4
    Stream size                 : 41.0 KiB (0%)
    Title                       : Sub_Forzados [PGS]
    Language                    : Spanish
    Default                     : Yes
    Forced                      : Yes

    Text #2
    ID                          : 5
    Format                      : PGS
    Muxing mode                 : zlib
    Codec ID                    : S_HDMV/PGS
    Codec ID/Info               : Picture based subtitle format used on BDs/HD-DVDs
    Duration                    : 1 h 52 min
    Bit rate                    : 32.7 kb/s
    Count of elements           : 2372
    Stream size                 : 26.3 MiB (1%)
    Title                       : Sub_Esp [PGS]
    Language                    : Spanish
    Default                     : No
    Forced                      : No

    Text #3
    ID                          : 6
    Format                      : PGS
    Muxing mode                 : zlib
    Codec ID                    : S_HDMV/PGS
    Codec ID/Info               : Picture based subtitle format used on BDs/HD-DVDs
    Duration                    : 1 h 52 min
    Bit rate                    : 38.4 kb/s
    Count of elements           : 2972
    Stream size                 : 30.9 MiB (1%)
    Title                       : Sub_Eng [PGS]
    Language                    : English
    Default                     : No
    Forced                      : No

    Text #4
    ID                          : 7
    Format                      : UTF-8
    Codec ID                    : S_TEXT/UTF8
    Codec ID/Info               : UTF-8 Plain Text
    Duration                    : 1 h 52 min
    Bit rate                    : 48 b/s
    Count of elements           : 1185
    Stream size                 : 39.9 KiB (0%)
    Title                       : Sub_Esp
    Language                    : Spanish
    Default                     : No
    Forced                      : No

    Menu
    00:00:00.000                : :Chapter 1
    00:06:14.291                : :Chapter 2
    00:16:42.627                : :Chapter 3
    00:21:09.185                : :Chapter 4
    00:31:16.541                : :Chapter 5
    00:35:25.915                : :Chapter 6
    00:45:57.338                : :Chapter 7
    00:53:43.262                : :Chapter 8
    01:00:52.816                : :Chapter 9
    01:08:40.033                : :Chapter 10
    01:14:23.960                : :Chapter 11
    01:24:14.967                : :Chapter 12
    01:28:36.520                : :Chapter 13
    01:36:36.666                : :Chapter 14
    01:46:36.015                : :Chapter 15
    01:51:04.658                : :Chapter 16

  • Peso: 4.46 GiB

Sinopsis

Descargar Anna (2019) Full HD 1080p Latino. Bajo la hipnotizante belleza de Anna Poliatova (Sasha Luss) se esconde un secreto que la lleva a poder desatar una imparable agilidad y fuerza, convirtiéndose así en una de las asesinas a sueldo más temidas por los gobiernos de todo el planeta.

Ficha técnica

Video trailer de la película

Enlaces de descarga

Rip de Bluray

Descargar Anna (2019) Full HD 1080p Latino




Aportes de DPeliculasHDmega la pass es:dpeliculashdmega.org Aportes de CinemaniaHD la pass es:cinemaniahdd.com

Películas relacionadas

  • Borrego: Sal Del Camino (2022) HD 1080p Latino

    Borrego: Sal Del Camino (2022) HD 1080p Latino

    2022
    Borrego: Sal Del Camino (2022) HD 1080p Latino

    1h 42m 2022

    Descargar Borrego: Sal Del Camino (2022) HD 1080p Latino. Una joven botánica se traslada a un pequeño...

    Director: Jesse Harris

    Género: Crimen

    Actores: Olivia Trujillo

  • Borrego: Sal Del Camino (2022) REMUX 1080p Latino

    Borrego: Sal Del Camino (2022) REMUX 1080p Latino

    2022
    Borrego: Sal Del Camino (2022) REMUX 1080p Latino

    1h 42m 2022

    Descargar Borrego: Sal Del Camino (2022) REMUX 1080p Latino. Una joven botánica se traslada a un pequeño...

    Director: Jesse Harris

    Género: Crimen

    Actores: Olivia Trujillo

  • Tren Bala (2022) WEB-DL 4K UHD HDR Latino

    Tren Bala (2022) WEB-DL 4K UHD HDR Latino

    2022
    Tren Bala (2022) WEB-DL 4K UHD HDR Latino

    2h 7m 2022

    Descargar Tren Bala (2022) WEB-DL 4K UHD HDR Latino. El desafortunado asesino "Catarina" está decidido...

    Director: Paul Barry

    Género: 4K HDR

    Actores: Zooey Miyoshi

  • Tren Bala (2022) AMZN WEB-DL 1080p Latino

    Tren Bala (2022) AMZN WEB-DL 1080p Latino

    2022
    Tren Bala (2022) AMZN WEB-DL 1080p Latino

    2h 7m 2022

    Descargar Tren Bala (2022) AMZN WEB-DL 1080p Latino. Cinco asesinos a sueldo se encuentran a bordo de...

    Director: Paul Barry

    Género: Acción

    Actores: Zooey Miyoshi

descargar Anna (2019) Full HD 1080p Latino Full 1080p 1080p gratis, Anna (2019) Full HD 1080p Latino Full 1080p mega 1 link, Anna (2019) Full HD 1080p Latino Full 1080p pelicula completa, descargar Anna (2019) Full HD 1080p Latino Full 1080p gratis en mega.

Anna (2019) Full HD 1080p Latino pelicula full hd, Anna (2019) Full HD 1080p Latino mega latino, Anna (2019) Full HD 1080p Latino 4k latino, Anna (2019) Full HD 1080p Latino pelicula completa, Anna (2019) Full HD 1080p Latino descargar gratis, descargar Anna (2019) Full HD 1080p Latino pelicula latino, Anna (2019) Full HD 1080p Latino 1 link mega, Anna (2019) Full HD 1080p Latino 1 link google drive, Anna (2019) Full HD 1080p Latino hd 1080p latino.
Comentarios 1
  • Octavio Cesar posadas Martinez - 19 septiembre, 2019

    Gracias por la pelicula, saludos