×

¿Problemas para descargar con Mozilla, EDGE? Deshabilita la opción "Abrir vinculos en una pestaña nueva" tal como lo muestra ésta imagen.

Animales fantásticos y dónde encontrarlos (2016) REMUX 1080p latino

280 vistas

Información de Animales fantásticos y dónde encontrarlos (2016) REMUX 1080p latino

Datos de la película

  • Calidad: Full 1080p
  • Audio: Se especifica abajo de la Sinopsis
  • Subtitulos: Español Latino PGS - Ingles PGS
  • Resolución: 1920x1080p
  • Formato: MKV
  • Codec: H.264
  • Encoder: Melkor
  • Mediainfo: Clic para Mostrar Datos Ver
  • Animales Fantasticos Y Donde Encontrarlos (2016) REMUX  1080p Latino.mkv
    Format                      : Matroska
    Format version              : Version 4
    File size                   : 24.8 GiB
    Duration                    : 2 h 12 min
    Overall bit rate mode       : Variable
    Overall bit rate            : 26.7 Mb/s
    Movie name                  : Fantastic Beasts and Where to Find Them (2016) CinemaniaHDD.Net
    Encoded date                : UTC 2022-05-30 18:48:04
    Writing application         : mkvmerge v56.1.0 ('My Friend') 64-bit
    Writing library             : libebml v1.4.2 + libmatroska v1.6.4
    Attachments                 : CINEMANIAHD.png

    Video
    ID                          : 1
    Format                      : AVC
    Format/Info                 : Advanced Video Codec
    Format profile              : High@L4.1
    Format settings             : CABAC / 4 Ref Frames
    Format settings, CABAC      : Yes
    Format settings, Reference  : 4 frames
    Codec ID                    : V_MPEG4/ISO/AVC
    Duration                    : 2 h 12 min
    Bit rate mode               : Variable
    Bit rate                    : 21.8 Mb/s
    Maximum bit rate            : 28.0 Mb/s
    Width                       : 1 920 pixels
    Height                      : 1 080 pixels
    Display aspect ratio        : 16:9
    Frame rate mode             : Constant
    Frame rate                  : 23.976 (24000/1001) FPS
    Color space                 : YUV
    Chroma subsampling          : 4:2:0
    Bit depth                   : 8 bits
    Scan type                   : Progressive
    Bits/(Pixel*Frame)          : 0.439
    Stream size                 : 20.2 GiB (82%)
    Title                       : REMUX HD1080p [CinemaniaHDD]
    Default                     : Yes
    Forced                      : Yes

    Audio #1
    ID                          : 2
    Format                      : AC-3
    Format/Info                 : Audio Coding 3
    Commercial name             : Dolby Digital
    Codec ID                    : A_AC3
    Duration                    : 2 h 12 min
    Bit rate mode               : Constant
    Bit rate                    : 448 kb/s
    Channel(s)                  : 6 channels
    Channel layout              : L R C LFE Ls Rs
    Sampling rate               : 48.0 kHz
    Frame rate                  : 31.250 FPS (1536 SPF)
    Compression mode            : Lossy
    Stream size                 : 426 MiB (2%)
    Title                       : Español Latino [CinemaniaHDD]
    Language                    : Spanish
    Service kind                : Complete Main
    Default                     : Yes
    Forced                      : Yes

    Audio #2
    ID                          : 3
    Format                      : MLP FBA 16-ch
    Format/Info                 : Meridian Lossless Packing FBA with 16-channel presentation
    Commercial name             : Dolby TrueHD with Dolby Atmos
    Codec ID                    : A_TRUEHD
    Duration                    : 2 h 12 min
    Bit rate mode               : Variable
    Bit rate                    : 3 951 kb/s
    Maximum bit rate            : 7 563 kb/s
    Channel(s)                  : 8 channels
    Channel layout              : L R C LFE Ls Rs Lb Rb
    Sampling rate               : 48.0 kHz
    Frame rate                  : 1 200.000 FPS (40 SPF)
    Compression mode            : Lossless
    Stream size                 : 3.67 GiB (15%)
    Title                       : Ingles [CinemaniaHDD]
    Language                    : English
    Default                     : No
    Forced                      : No
    Number of dynamic objects   : 11
    Bed channel count           : 1 channel
    Bed channel configuration   : LFE

    Audio #3
    ID                          : 4
    Format                      : AC-3
    Format/Info                 : Audio Coding 3
    Commercial name             : Dolby Digital
    Format settings             : Dolby Surround EX
    Codec ID                    : A_AC3
    Duration                    : 2 h 12 min
    Bit rate mode               : Constant
    Bit rate                    : 448 kb/s
    Channel(s)                  : 6 channels
    Channel layout              : L R C LFE Ls Rs
    Sampling rate               : 48.0 kHz
    Frame rate                  : 31.250 FPS (1536 SPF)
    Compression mode            : Lossy
    Stream size                 : 426 MiB (2%)
    Title                       : Ingles AC3 [CinemaniaHDD]
    Language                    : English
    Service kind                : Complete Main
    Default                     : No
    Forced                      : No

    Text #1
    ID                          : 5
    Format                      : PGS
    Muxing mode                 : zlib
    Codec ID                    : S_HDMV/PGS
    Codec ID/Info               : Picture based subtitle format used on BDs/HD-DVDs
    Duration                    : 2 h 11 min
    Bit rate                    : 584 b/s
    Count of elements           : 50
    Stream size                 : 563 KiB (0%)
    Title                       : Forzados-PGS [CinemaniaHDD]
    Language                    : Spanish
    Default                     : No
    Forced                      : No

    Text #2
    ID                          : 6
    Format                      : PGS
    Muxing mode                 : zlib
    Codec ID                    : S_HDMV/PGS
    Codec ID/Info               : Picture based subtitle format used on BDs/HD-DVDs
    Duration                    : 2 h 12 min
    Bit rate                    : 23.0 kb/s
    Count of elements           : 2656
    Stream size                 : 21.8 MiB (0%)
    Title                       : Español-PGS [CinemaniaHDD]
    Language                    : Spanish
    Default                     : No
    Forced                      : No

    Text #3
    ID                          : 7
    Format                      : PGS
    Muxing mode                 : zlib
    Codec ID                    : S_HDMV/PGS
    Codec ID/Info               : Picture based subtitle format used on BDs/HD-DVDs
    Duration                    : 2 h 11 min
    Bit rate                    : 28.4 kb/s
    Count of elements           : 3198
    Stream size                 : 26.8 MiB (0%)
    Title                       : Ingles-PGS [CinemaniaHDD]
    Language                    : English
    Default                     : No
    Forced                      : No

    Text #4
    ID                          : 8
    Format                      : UTF-8
    Codec ID                    : S_TEXT/UTF8
    Codec ID/Info               : UTF-8 Plain Text
    Duration                    : 2 h 2 min
    Bit rate                    : 1 b/s
    Count of elements           : 43
    Stream size                 : 1.38 KiB (0%)
    Title                       : Forzados-SRT [CinemaniaHDD]
    Language                    : Spanish
    Default                     : Yes
    Forced                      : Yes

    Text #5
    ID                          : 9
    Format                      : UTF-8
    Codec ID                    : S_TEXT/UTF8
    Codec ID/Info               : UTF-8 Plain Text
    Duration                    : 2 h 12 min
    Bit rate                    : 37 b/s
    Count of elements           : 1327
    Stream size                 : 36.0 KiB (0%)
    Title                       : Español-SRT [CinemaniaHDD]
    Language                    : Spanish
    Default                     : No
    Forced                      : No

    Menu
    00:00:00.000                : Chapter 1
    00:08:40.270                : Chapter 2
    00:18:55.718                : Chapter 3
    00:28:23.660                : Chapter 4
    00:38:34.187                : Chapter 5
    00:48:08.594                : Chapter 6
    00:58:19.246                : Chapter 7
    01:09:14.692                : Chapter 8
    01:17:26.392                : Chapter 9
    01:29:33.660                : Chapter 10
    01:38:02.085                : Chapter 11
    01:50:27.871                : Chapter 12
    01:59:04.471                : Chapter 13
    02:04:11.945                : Chapter 14

  • Peso: 24.8 GiB

Sinopsis

Descargar Animales fantásticos y dónde encontrarlos (2016) REMUX 1080p latino. Año 1926. Newt Scamander acaba de completar un viaje por todo el mundo para encontrar y documentar una extraordinaria selección de criaturas mágicas. Llegando a Nueva York para hacer una breve parada en su camino, donde podría haber llegado y salido sin incidentes…pero no para un Muggle llamado Jacob, un caso perdido de magia, y la fuga de algunas criaturas fantásticas de Newt, que podrían causar problemas el mundo mágico y en el mundo Muggle.

Español Latino AC3 5.1 BD – Ingles THD 7.1 & AC3 5.1 BD

Ficha técnica

Video trailer de la película

Enlaces de descarga

Rip de Bluray

Descargar Animales fantásticos y dónde encontrarlos (2016) REMUX 1080p latino




Aportes de DPeliculasHDmega la pass es:dpeliculashdmega.org Aportes de CinemaniaHD la pass es:cinemaniahdd.com
Guardado en : Acción , Aventura , Fantasía , Remux

Películas relacionadas

  • Hombre de familia (2000) REMUX 1080p Latino

    Hombre de familia (2000) REMUX 1080p Latino

    2000
    Hombre de familia (2000) REMUX 1080p Latino

    2h 1m 2000

    Descargar Hombre de familia (2000) REMUX 1080p Latino. Jack Campbell es un egocéntrico broker de Wall...

    Director: Robert Schroer

    Género: Comedia

    Actores: Wass Stevens

  • Anon (2018) REMUX 1080p Latino

    Anon (2018) REMUX 1080p Latino

    2018
    Anon (2018) REMUX 1080p Latino

    1h 40m 2018

    Descargar Anon (2018) REMUX 1080p Latino. Anon nos lleva hasta un futuro no muy lejano al estilo soviético,...

    Director: Sarah Campbell

    Género: Ciencia ficción

    Actores: Zion Lee

descargar Animales fantásticos y dónde encontrarlos (2016) REMUX 1080p latino Full 1080p 1080p gratis, Animales fantásticos y dónde encontrarlos (2016) REMUX 1080p latino Full 1080p mega 1 link, Animales fantásticos y dónde encontrarlos (2016) REMUX 1080p latino Full 1080p pelicula completa, descargar Animales fantásticos y dónde encontrarlos (2016) REMUX 1080p latino Full 1080p gratis en mega.

Animales fantásticos y dónde encontrarlos (2016) REMUX 1080p latino pelicula full hd, Animales fantásticos y dónde encontrarlos (2016) REMUX 1080p latino mega latino, Animales fantásticos y dónde encontrarlos (2016) REMUX 1080p latino 4k latino, Animales fantásticos y dónde encontrarlos (2016) REMUX 1080p latino pelicula completa, Animales fantásticos y dónde encontrarlos (2016) REMUX 1080p latino descargar gratis, descargar Animales fantásticos y dónde encontrarlos (2016) REMUX 1080p latino pelicula latino, Animales fantásticos y dónde encontrarlos (2016) REMUX 1080p latino 1 link mega, Animales fantásticos y dónde encontrarlos (2016) REMUX 1080p latino 1 link google drive, Animales fantásticos y dónde encontrarlos (2016) REMUX 1080p latino hd 1080p latino.
Comentarios 0