×

¿Problemas para descargar con Mozilla, EDGE? Deshabilita la opción "Abrir vinculos en una pestaña nueva" tal como lo muestra ésta imagen.

Animales fantásticos y dónde encontrarlos (2016) Full 1080p Latino

5.563 vistas

Información de Animales fantásticos y dónde encontrarlos (2016) Full 1080p Latino

Datos de la película

  • Calidad: Full 1080p
  • Audio: Español Latino AC3 5.1 BLURAY - Ingles DTS 5.1 BLURAY
  • Subtitulos: Español Latino PGS - Ingles PGS
  • Resolución: 1920X1080p
  • Formato: MKV
  • Codec: H.264
  • Encoder: Dracarys
  • Mediainfo: Clic para Mostrar Datos Ver
  • Animales Fantasticos Y Donde Encontrarlos (2016) Full 1080p Latino.mkv
    Format                      : Matroska
    Format version              : Version 4
    File size                   : 5.60 GiB
    Duration                    : 2 h 12 min
    Overall bit rate            : 6 031 kb/s
    Movie name                  : Fantastic Beasts and Where to Find Them (2016) CinemaniaHDD.Net
    Encoded date                : UTC 2022-05-30 15:41:36
    Writing application         : mkvmerge v56.1.0 ('My Friend') 64-bit
    Writing library             : libebml v1.4.2 + libmatroska v1.6.4
    Attachments                 : CINEMANIAHD.png

    Video
    ID                          : 1
    Format                      : AVC
    Format/Info                 : Advanced Video Codec
    Format profile              : High@L4.1
    Format settings             : CABAC / 4 Ref Frames
    Format settings, CABAC      : Yes
    Format settings, Reference  : 4 frames
    Codec ID                    : V_MPEG4/ISO/AVC
    Duration                    : 2 h 12 min
    Bit rate                    : 4 055 kb/s
    Width                       : 1 920 pixels
    Height                      : 1 080 pixels
    Display aspect ratio        : 16:9
    Frame rate mode             : Constant
    Frame rate                  : 23.976 (24000/1001) FPS
    Color space                 : YUV
    Chroma subsampling          : 4:2:0
    Bit depth                   : 8 bits
    Scan type                   : Progressive
    Bits/(Pixel*Frame)          : 0.082
    Stream size                 : 3.76 GiB (67%)
    Title                       : Full HD1080p [CinemaniaHDD]
    Writing library             : x264 core 148 r2708 86b7198
    Encoding settings           : cabac=1 / ref=4 / deblock=1:0:0 / analyse=0x3:0x133 / me=esa / subme=10 / psy=1 / psy_rd=1.00:0.00 / mixed_ref=1 / me_range=24 / chroma_me=1 / trellis=2 / 8x8dct=1 / cqm=0 / deadzone=21,11 / fast_pskip=1 / chroma_qp_offset=-2 / threads=34 / lookahead_threads=5 / sliced_threads=0 / nr=0 / decimate=1 / interlaced=0 / bluray_compat=0 / constrained_intra=0 / bframes=8 / b_pyramid=2 / b_adapt=2 / b_bias=0 / direct=3 / weightb=1 / open_gop=0 / weightp=2 / keyint=240 / keyint_min=24 / scenecut=40 / intra_refresh=0 / rc_lookahead=60 / rc=crf / mbtree=1 / crf=20.0 / qcomp=0.60 / qpmin=0 / qpmax=69 / qpstep=4 / vbv_maxrate=62500 / vbv_bufsize=78125 / crf_max=0.0 / nal_hrd=none / filler=0 / ip_ratio=1.40 / aq=1:1.00
    Language                    : English
    Default                     : Yes
    Forced                      : Yes
    Color range                 : Limited
    Color primaries             : BT.709
    Transfer characteristics    : BT.709
    Matrix coefficients         : BT.709

    Audio #1
    ID                          : 2
    Format                      : AC-3
    Format/Info                 : Audio Coding 3
    Commercial name             : Dolby Digital
    Codec ID                    : A_AC3
    Duration                    : 2 h 12 min
    Bit rate mode               : Constant
    Bit rate                    : 448 kb/s
    Channel(s)                  : 6 channels
    Channel layout              : L R C LFE Ls Rs
    Sampling rate               : 48.0 kHz
    Frame rate                  : 31.250 FPS (1536 SPF)
    Compression mode            : Lossy
    Stream size                 : 426 MiB (7%)
    Title                       : Español Latino [CinemaniaHDD]
    Language                    : Spanish
    Service kind                : Complete Main
    Default                     : Yes
    Forced                      : Yes

    Audio #2
    ID                          : 3
    Format                      : DTS
    Format/Info                 : Digital Theater Systems
    Codec ID                    : A_DTS
    Duration                    : 2 h 12 min
    Bit rate mode               : Constant
    Bit rate                    : 1 509 kb/s
    Channel(s)                  : 6 channels
    Channel layout              : C L R Ls Rs LFE
    Sampling rate               : 48.0 kHz
    Frame rate                  : 93.750 FPS (512 SPF)
    Bit depth                   : 24 bits
    Compression mode            : Lossy
    Stream size                 : 1.40 GiB (25%)
    Title                       : Ingles [CinemaniaHDD]
    Language                    : English
    Default                     : No
    Forced                      : No

    Text #1
    ID                          : 4
    Format                      : PGS
    Muxing mode                 : zlib
    Codec ID                    : S_HDMV/PGS
    Codec ID/Info               : Picture based subtitle format used on BDs/HD-DVDs
    Duration                    : 2 h 11 min
    Bit rate                    : 584 b/s
    Count of elements           : 50
    Stream size                 : 563 KiB (0%)
    Title                       : Forzados-PGS [CinemaniaHDD]
    Language                    : Spanish
    Default                     : Yes
    Forced                      : No

    Text #2
    ID                          : 5
    Format                      : PGS
    Muxing mode                 : zlib
    Codec ID                    : S_HDMV/PGS
    Codec ID/Info               : Picture based subtitle format used on BDs/HD-DVDs
    Duration                    : 2 h 12 min
    Bit rate                    : 23.0 kb/s
    Count of elements           : 2656
    Stream size                 : 21.8 MiB (0%)
    Title                       : Español-PGS [CinemaniaHDD]
    Language                    : Spanish
    Default                     : No
    Forced                      : No

    Text #3
    ID                          : 6
    Format                      : PGS
    Muxing mode                 : zlib
    Codec ID                    : S_HDMV/PGS
    Codec ID/Info               : Picture based subtitle format used on BDs/HD-DVDs
    Duration                    : 2 h 11 min
    Bit rate                    : 28.4 kb/s
    Count of elements           : 3198
    Stream size                 : 26.8 MiB (0%)
    Title                       : Ingles-PGS [CinemaniaHDD]
    Language                    : English
    Default                     : No
    Forced                      : No

    Text #4
    ID                          : 7
    Format                      : UTF-8
    Codec ID                    : S_TEXT/UTF8
    Codec ID/Info               : UTF-8 Plain Text
    Duration                    : 2 h 2 min
    Bit rate                    : 1 b/s
    Count of elements           : 43
    Stream size                 : 1.38 KiB (0%)
    Title                       : Forzados-SRT [CinemaniaHDD]
    Language                    : Spanish
    Default                     : No
    Forced                      : Yes

    Text #5
    ID                          : 8
    Format                      : UTF-8
    Codec ID                    : S_TEXT/UTF8
    Codec ID/Info               : UTF-8 Plain Text
    Duration                    : 2 h 12 min
    Bit rate                    : 37 b/s
    Count of elements           : 1327
    Stream size                 : 36.0 KiB (0%)
    Title                       : Español-SRT [CinemaniaHDD]
    Language                    : Spanish
    Default                     : No
    Forced                      : No

    Menu
    00:00:00.000                : Chapter 1
    00:08:40.270                : Chapter 2
    00:18:55.718                : Chapter 3
    00:28:23.660                : Chapter 4
    00:38:34.187                : Chapter 5
    00:48:08.594                : Chapter 6
    00:58:19.246                : Chapter 7
    01:09:14.692                : Chapter 8
    01:17:26.392                : Chapter 9
    01:29:33.660                : Chapter 10
    01:38:02.085                : Chapter 11
    01:50:27.871                : Chapter 12
    01:59:04.471                : Chapter 13
    02:04:11.945                : Chapter 14

  • Peso: 5.60 GiB

Sinopsis

Descargar Animales fantásticos y dónde encontrarlos (2016) Full 1080p Latino. Año 1926. Newt Scamander acaba de completar un viaje por todo el mundo para encontrar y documentar una extraordinaria selección de criaturas mágicas. Llegando a Nueva York para hacer una breve parada en su camino, donde podría haber llegado y salido sin incidentes…pero no para un Muggle llamado Jacob, un caso perdido de magia, y la fuga de algunas criaturas fantásticas de Newt, que podrían causar problemas el mundo mágico y en el mundo Muggle.

RESUBIDO!!!

Ficha técnica

Video trailer de la película

Enlaces de descarga

Rip de Bluray

Descargar Animales fantásticos y dónde encontrarlos (2016) Full 1080p Latino




Aportes de DPeliculasHDmega la pass es:dpeliculashdmega.org Aportes de CinemaniaHD la pass es:cinemaniahdd.com

Películas relacionadas

  • Scrooge: Cuento De Navidad (2022) NF WEB-DL 1080p Latino

    Scrooge: Cuento De Navidad (2022) NF WEB-DL 1080p Latino

    2022
    Scrooge: Cuento De Navidad (2022) NF WEB-DL 1080p Latino

    1h 37m 2022

    Descargar Scrooge Cuento De Navidad (2022) NF WEB-DL 1080p Latino. En la víspera de Navidad, el egoísta...

    Director: Stephen Donnelly

    Género: Animación

    Actores: Trevor Dion Nicholas

  • Trol (2022) NF WEB-DL 1080p Latino

    Trol (2022) NF WEB-DL 1080p Latino

    2022
    Trol (2022) NF WEB-DL 1080p Latino

    1h 43m 2022

    Las autoridades recurren a una audaz paleontóloga para evitar que un trol ancestral, al que ha despertado...

    Director: Sascha Marden

    Género: Acción

    Actores: Yusuf Toosh Ibra

  • Observada (2022) PLACEBO Full HD 1080p Latino

    Observada (2022) PLACEBO Full HD 1080p Latino

    2022
    Observada (2022) PLACEBO Full HD 1080p Latino

    1h 35m 2022

    Descargar Observada (2022) PLACEBO Full HD 1080p Latino. Una joven se muda a un nuevo apartamento con...

    Director: Chloe Okuno

    Género: FULL 1080p Plateadas

    Actores: Tudor Petruț

descargar Animales fantásticos y dónde encontrarlos (2016) Full 1080p Latino Full 1080p 1080p gratis, Animales fantásticos y dónde encontrarlos (2016) Full 1080p Latino Full 1080p mega 1 link, Animales fantásticos y dónde encontrarlos (2016) Full 1080p Latino Full 1080p pelicula completa, descargar Animales fantásticos y dónde encontrarlos (2016) Full 1080p Latino Full 1080p gratis en mega.

Animales fantásticos y dónde encontrarlos (2016) Full 1080p Latino pelicula full hd, Animales fantásticos y dónde encontrarlos (2016) Full 1080p Latino mega latino, Animales fantásticos y dónde encontrarlos (2016) Full 1080p Latino 4k latino, Animales fantásticos y dónde encontrarlos (2016) Full 1080p Latino pelicula completa, Animales fantásticos y dónde encontrarlos (2016) Full 1080p Latino descargar gratis, descargar Animales fantásticos y dónde encontrarlos (2016) Full 1080p Latino pelicula latino, Animales fantásticos y dónde encontrarlos (2016) Full 1080p Latino 1 link mega, Animales fantásticos y dónde encontrarlos (2016) Full 1080p Latino 1 link google drive, Animales fantásticos y dónde encontrarlos (2016) Full 1080p Latino hd 1080p latino.
Comentarios 6
  • paul - 26 octubre, 2017

    la tendrán en cola para subirla en 4k ??? gracias

    • Dpelis2 pelis2 - 26 octubre, 2017

      Proximamente…. Saludos

  • Jhefferson - 26 octubre, 2017

    Muchas gracias me parece que ya habia descargado su version de esta pelicula hace tiempos esta es una version nueva o es la misma ?

    • Dpelis2 pelis2 - 26 octubre, 2017

      Hola amigo Es un nuevo Rip. Saludos

      • paulo - 26 octubre, 2017

        hola como estan, diganme hay alguna diferencia con la version anterior

        • Dpelis2 pelis2 - 26 octubre, 2017

          Hola. Es la misma película solo que con un nuevo Encoder! Saludos