×

¿Problemas para descargar con Mozilla, EDGE? Deshabilita la opción "Abrir vinculos en una pestaña nueva" tal como lo muestra ésta imagen.

Animal Kingdom (2010) REMUX 1080p Latino

199 vistas

Información de Animal Kingdom (2010) REMUX 1080p Latino

Datos de la película

  • Calidad: Full 1080p
  • Audio: Español Latino AC3 2.0 WEB-DL - Ingles DTS 5.1 BLURAY
  • Subtitulos: Español Latino PGS - Ingles PGS
  • Resolución: 1920x1080
  • Formato: MKV
  • Codec: H.264
  • Encoder: cinemaniahdd
  • Mediainfo: Clic para Mostrar Datos Ver
  • Animal Kingdom (2010) REMUX 1080p Latino [CNMNHDD].mkv
    Format                      : Matroska
    Format version              : Version 4
    File size                   : 20.3 GiB
    Duration                    : 1 h 53 min
    Overall bit rate mode       : Variable
    Overall bit rate            : 25.7 Mb/s
    Movie name                  : Animal Kingdom (2010) REMUX - CinemaniaHDD.Net
    Encoded date                : UTC 2022-08-13 18:41:24
    Writing application         : mkvmerge v56.1.0 ('My Friend') 64-bit
    Writing library             : libebml v1.4.2 + libmatroska v1.6.4

    Video
    ID                          : 1
    Format                      : AVC
    Format/Info                 : Advanced Video Codec
    Format profile              : High@L4.1
    Format settings             : CABAC / 2 Ref Frames
    Format settings, CABAC      : Yes
    Format settings, Reference  : 2 frames
    Format settings, GOP        : M=1, N=10
    Codec ID                    : V_MPEG4/ISO/AVC
    Duration                    : 1 h 53 min
    Bit rate mode               : Variable
    Bit rate                    : 22.0 Mb/s
    Width                       : 1 920 pixels
    Height                      : 1 080 pixels
    Display aspect ratio        : 16:9
    Frame rate mode             : Constant
    Frame rate                  : 23.976 (24000/1001) FPS
    Color space                 : YUV
    Chroma subsampling          : 4:2:0
    Bit depth                   : 8 bits
    Scan type                   : Progressive
    Bits/(Pixel*Frame)          : 0.442
    Stream size                 : 17.4 GiB (86%)
    Title                       : CinemaniaHDD
    Default                     : Yes
    Forced                      : No

    Audio #1
    ID                          : 2
    Format                      : AC-3
    Format/Info                 : Audio Coding 3
    Commercial name             : Dolby Digital
    Codec ID                    : A_AC3
    Duration                    : 1 h 53 min
    Bit rate mode               : Constant
    Bit rate                    : 384 kb/s
    Channel(s)                  : 2 channels
    Channel layout              : L R
    Sampling rate               : 48.0 kHz
    Frame rate                  : 31.250 FPS (1536 SPF)
    Compression mode            : Lossy
    Stream size                 : 311 MiB (1%)
    Title                       : Español latino [CinemaniaHDD]
    Language                    : Spanish
    Service kind                : Complete Main
    Default                     : Yes
    Forced                      : No

    Audio #2
    ID                          : 3
    Format                      : DTS XLL
    Format/Info                 : Digital Theater Systems
    Commercial name             : DTS-HD Master Audio
    Codec ID                    : A_DTS
    Duration                    : 1 h 53 min
    Bit rate mode               : Variable
    Bit rate                    : 3 313 kb/s
    Channel(s)                  : 6 channels
    Channel layout              : C L R Ls Rs LFE
    Sampling rate               : 48.0 kHz
    Frame rate                  : 93.750 FPS (512 SPF)
    Bit depth                   : 24 bits
    Compression mode            : Lossless
    Stream size                 : 2.62 GiB (13%)
    Title                       : Inglés [CinemaniaHDD]
    Language                    : English
    Default                     : No
    Forced                      : No

    Text #1
    ID                          : 4
    Format                      : PGS
    Muxing mode                 : zlib
    Codec ID                    : S_HDMV/PGS
    Codec ID/Info               : Picture based subtitle format used on BDs/HD-DVDs
    Duration                    : 1 h 47 min
    Bit rate                    : 23.8 kb/s
    Count of elements           : 2210
    Stream size                 : 18.2 MiB (0%)
    Title                       : Español latino [CinemaniaHDD]
    Language                    : Spanish
    Default                     : No
    Forced                      : No

    Text #2
    ID                          : 5
    Format                      : PGS
    Muxing mode                 : zlib
    Codec ID                    : S_HDMV/PGS
    Codec ID/Info               : Picture based subtitle format used on BDs/HD-DVDs
    Duration                    : 1 h 47 min
    Bit rate                    : 30.3 kb/s
    Count of elements           : 2310
    Stream size                 : 23.4 MiB (0%)
    Title                       : Inglés [CinemaniaHDD]
    Language                    : English
    Default                     : No
    Forced                      : No

    Menu
    00:00:00.000                : Chapter 1
    00:05:57.482                : Chapter 2
    00:13:03.658                : Chapter 3
    00:21:11.228                : Chapter 4
    00:29:32.312                : Chapter 5
    00:34:48.503                : Chapter 6
    00:41:37.203                : Chapter 7
    00:49:29.967                : Chapter 8
    00:58:14.991                : Chapter 9
    01:03:50.535                : Chapter 10
    01:08:58.885                : Chapter 11
    01:15:42.037                : Chapter 12
    01:24:50.836                : Chapter 13
    01:32:47.228                : Chapter 14
    01:37:56.621                : Chapter 15
    01:46:03.315                : Chapter 16

     

  • Peso: 20.3 GiB

Sinopsis

Tras la muerte de su madre, Joshua “J” Cody, tiene que trasladarse a casa de su abuela Janine, que vive en Melbourne con sus tres hijos, Andrew, Darren y Craig, todos implicados en negocios ilegales. Inevitablemente, el chico se verá envuelto en los turbios asuntos de sus tíos, sobre todo cuando se produzca un enfrentamiento entre sus familiares y las autoridades locales, situación que provocará una serie de asesinatos a sangre fría. El sargento Leckie intentará salvar a Joshua y, además, conseguir su colaboración para detener a la banda

Ficha técnica

Video trailer de la película

Enlaces de descarga

Rip de Bluray

Descargar Animal Kingdom (2010) REMUX 1080p Latino


Aportes de DPeliculasHDmega la pass es:dpeliculashdmega.org Aportes de CinemaniaHD la pass es:cinemaniahdd.com
Guardado en : Crimen , Drama , Misterio , Remux , Suspenso

Películas relacionadas

  • Wire Room (2022) HD 1080p Latino

    Wire Room (2022) HD 1080p Latino

    2022
    Wire Room (2022) HD 1080p Latino

    1h 37m 2022

    Descargar Wire Room (2022) HD 1080p Latino. Mientras está de servicio en la sala de cables, un agente...

    Director: Matt Eskandari

    Género: Acción

    Actores: Texas Battle

  • Wire Room (2022) PLACEBO Full HD 1080p Latino

    Wire Room (2022) PLACEBO Full HD 1080p Latino

    2022
    Wire Room (2022) PLACEBO Full HD 1080p Latino

    1h 37m 2022

    Descargar Wire Room (2022) PLACEBO Full HD 1080p Latino. Mientras está de servicio en la sala de cables,...

    Director: Matt Eskandari

    Género: Acción

    Actores: Texas Battle

  • Wire Room (2022) REMUX 1080p Latino

    Wire Room (2022) REMUX 1080p Latino

    2022
    Wire Room (2022) REMUX 1080p Latino

    1h 37m 2022

    Descargar Wire Room (2022) REMUX 1080p Latino. Mientras está de servicio en la sala de cables, un agente...

    Director: Matt Eskandari

    Género: Acción

    Actores: Texas Battle

  • Alarido (2022) HD 1080p Latino

    Alarido (2022) HD 1080p Latino

    2022
    Alarido (2022) HD 1080p Latino

    1h 29m 2022

    Descargar Alarido (2022) HD 1080p Latino. Una joven madre soltera es cautiva junto con sus dos hijos...

    Director: D.J. Caruso

    Género: HD 1080p

    Actores: Vincent Gallo

  • Alarido (2022) PLACEBO Full HD 1080p Latino

    Alarido (2022) PLACEBO Full HD 1080p Latino

    2022
    Alarido (2022) PLACEBO Full HD 1080p Latino

    1h 29m 2022

    Descargar Alarido (2022) PLACEBO Full HD 1080p Latino. Una joven madre soltera es cautiva junto con sus...

    Director: D.J. Caruso

    Género: FULL 1080p Plateadas

    Actores: Vincent Gallo

descargar Animal Kingdom (2010) REMUX 1080p Latino Full 1080p 1080p gratis, Animal Kingdom (2010) REMUX 1080p Latino Full 1080p mega 1 link, Animal Kingdom (2010) REMUX 1080p Latino Full 1080p pelicula completa, descargar Animal Kingdom (2010) REMUX 1080p Latino Full 1080p gratis en mega.

Animal Kingdom (2010) REMUX 1080p Latino pelicula full hd, Animal Kingdom (2010) REMUX 1080p Latino mega latino, Animal Kingdom (2010) REMUX 1080p Latino 4k latino, Animal Kingdom (2010) REMUX 1080p Latino pelicula completa, Animal Kingdom (2010) REMUX 1080p Latino descargar gratis, descargar Animal Kingdom (2010) REMUX 1080p Latino pelicula latino, Animal Kingdom (2010) REMUX 1080p Latino 1 link mega, Animal Kingdom (2010) REMUX 1080p Latino 1 link google drive, Animal Kingdom (2010) REMUX 1080p Latino hd 1080p latino.
Comentarios 0