×

¿Problemas para descargar con Mozilla, EDGE? Deshabilita la opción "Abrir vinculos en una pestaña nueva" tal como lo muestra ésta imagen.

Animadoras Justicieras: Una serie de Get Even (2022) Temporada 1 NF WEB-DL 1080p Latino

50 vistas

Información de Animadoras Justicieras: Una serie de Get Even (2022) Temporada 1 NF WEB-DL 1080p Latino

Datos de la película

  • Calidad: WEBDL
  • Audio: Español Latino E-AC3 5.1 Netflix - Ingles E-AC3 5.1 Netflix
  • Subtitulos: Español Latino SRT- FORZADOS SRT
  • Resolución: 1920x1080p
  • Formato: MKV
  • Codec: H.264
  • Encoder: Melkor
  • Mediainfo: Clic para Mostrar Datos Ver
  • Rebel Cheer Squad A Get Even Series S01E01 (2022) NF WebDL 1080p Latino.mkv
    Format                      : Matroska
    Format version              : Version 4
    File size                   : 1.02 GiB
    Duration                    : 29 min 21 s
    Overall bit rate mode       : Variable
    Overall bit rate            : 4 984 kb/s
    Movie name                  : Rebel Cheer Squad A Get Even Series S01E01 CinemaniaHDD.Net
    Encoded date                : UTC 2022-07-29 20:45:52
    Writing application         : mkvmerge v56.1.0 ('My Friend') 64-bit
    Writing library             : libebml v1.4.2 + libmatroska v1.6.4
    Attachments                 : CINEMANIAHD.png

    Video
    ID                          : 1
    Format                      : AVC
    Format/Info                 : Advanced Video Codec
    Format profile              : High@L4
    Format settings             : CABAC / 4 Ref Frames
    Format settings, CABAC      : Yes
    Format settings, Reference  : 4 frames
    Codec ID                    : V_MPEG4/ISO/AVC
    Duration                    : 29 min 20 s
    Bit rate mode               : Variable
    Bit rate                    : 3 704 kb/s
    Maximum bit rate            : 20.0 Mb/s
    Width                       : 1 920 pixels
    Height                      : 1 080 pixels
    Display aspect ratio        : 16:9
    Frame rate mode             : Constant
    Frame rate                  : 25.000 FPS
    Color space                 : YUV
    Chroma subsampling          : 4:2:0
    Bit depth                   : 8 bits
    Scan type                   : Progressive
    Bits/(Pixel*Frame)          : 0.071
    Stream size                 : 777 MiB (74%)
    Title                       : WEB HD1080p [CinemaniaHDD]
    Writing library             : x264 core 148 r2727 7d026e8
    Encoding settings           : cabac=1 / ref=4 / deblock=1:0:0 / analyse=0x3:0x111 / me=umh / subme=10 / psy=1 / psy_rd=1.00:0.00 / mixed_ref=1 / me_range=120 / chroma_me=1 / trellis=2 / 8x8dct=1 / cqm=0 / deadzone=21,11 / fast_pskip=1 / chroma_qp_offset=-2 / threads=8 / lookahead_threads=2 / sliced_threads=0 / nr=0 / decimate=1 / interlaced=0 / bluray_compat=0 / stitchable=1 / constrained_intra=0 / bframes=16 / b_pyramid=2 / b_adapt=2 / b_bias=0 / direct=3 / weightb=1 / open_gop=0 / weightp=2 / keyint=250 / keyint_min=126 / scenecut=0 / intra_refresh=0 / rc_lookahead=250 / rc=crf / mbtree=1 / crf=20.0 / qcomp=0.50 / qpmin=6 / qpmax=51 / qpstep=4 / vbv_maxrate=20000 / vbv_bufsize=25000 / crf_max=0.0 / nal_hrd=vbr / filler=0 / ip_ratio=1.40 / aq=1:0.80
    Default                     : Yes
    Forced                      : No

    Audio #1
    ID                          : 2
    Format                      : E-AC-3
    Format/Info                 : Enhanced AC-3
    Commercial name             : Dolby Digital Plus
    Codec ID                    : A_EAC3
    Duration                    : 29 min 21 s
    Bit rate mode               : Constant
    Bit rate                    : 640 kb/s
    Channel(s)                  : 6 channels
    Channel layout              : L R C LFE Ls Rs
    Sampling rate               : 48.0 kHz
    Frame rate                  : 31.250 FPS (1536 SPF)
    Compression mode            : Lossy
    Stream size                 : 134 MiB (13%)
    Title                       : Español Latino [CinemaniaHDD]
    Language                    : Spanish
    Service kind                : Complete Main
    Default                     : Yes
    Forced                      : No

    Audio #2
    ID                          : 3
    Format                      : E-AC-3
    Format/Info                 : Enhanced AC-3
    Commercial name             : Dolby Digital Plus
    Codec ID                    : A_EAC3
    Duration                    : 29 min 21 s
    Bit rate mode               : Constant
    Bit rate                    : 640 kb/s
    Channel(s)                  : 6 channels
    Channel layout              : L R C LFE Ls Rs
    Sampling rate               : 48.0 kHz
    Frame rate                  : 31.250 FPS (1536 SPF)
    Compression mode            : Lossy
    Stream size                 : 134 MiB (13%)
    Title                       : Ingles [CinemaniaHDD]
    Language                    : English
    Service kind                : Complete Main
    Default                     : No
    Forced                      : No

    Text #1
    ID                          : 4
    Format                      : UTF-8
    Codec ID                    : S_TEXT/UTF8
    Codec ID/Info               : UTF-8 Plain Text
    Duration                    : 26 min 8 s
    Bit rate                    : 2 b/s
    Count of elements           : 17
    Stream size                 : 443 Bytes (0%)
    Title                       : Forzados-SRT [CinemaniaHDD]
    Language                    : Spanish
    Default                     : Yes
    Forced                      : Yes

    Text #2
    ID                          : 5
    Format                      : UTF-8
    Codec ID                    : S_TEXT/UTF8
    Codec ID/Info               : UTF-8 Plain Text
    Duration                    : 26 min 8 s
    Bit rate                    : 50 b/s
    Count of elements           : 308
    Stream size                 : 9.72 KiB (0%)
    Title                       : Español-SRT [CinemaniaHDD]
    Language                    : Spanish
    Default                     : No
    Forced                      : No

    Text #3
    ID                          : 6
    Format                      : UTF-8
    Codec ID                    : S_TEXT/UTF8
    Codec ID/Info               : UTF-8 Plain Text
    Duration                    : 26 min 2 s
    Bit rate                    : 102 b/s
    Count of elements           : 440
    Stream size                 : 19.5 KiB (0%)
    Title                       : Ingles-SRT [CinemaniaHDD]
    Language                    : English
    Default                     : No
    Forced                      : No

  • Peso: 1.20 GiB Aprox. C/U - 9.67 GiB - 8 Chapters

Sinopsis

Descargar Animadoras Justicieras: Una serie de Get Even (2022) Temporada 1 NF WEB-DL 1080p Latino. Tres animadoras deciden continuar la labor de sus antiguas compañeras de clase y luchar contra las injusticias en su elitista colegio privado.

Ficha técnica

Video trailer de la película

Enlaces de descarga

Rip de Bluray

Descargar Animadoras Justicieras: Una serie de Get Even (2022) Temporada 1 NF WEB-DL 1080p Latino




Aportes de DPeliculasHDmega la pass es:dpeliculashdmega.org Aportes de CinemaniaHD la pass es:cinemaniahdd.com
Guardado en : Drama , Familia , Netflix , Series

Películas relacionadas

Animadoras Justicieras: Una serie de Get Even (2022) Temporada 1 NF WEB-DL 1080p Latino pelicula full hd, Animadoras Justicieras: Una serie de Get Even (2022) Temporada 1 NF WEB-DL 1080p Latino mega latino, Animadoras Justicieras: Una serie de Get Even (2022) Temporada 1 NF WEB-DL 1080p Latino 4k latino, Animadoras Justicieras: Una serie de Get Even (2022) Temporada 1 NF WEB-DL 1080p Latino pelicula completa, Animadoras Justicieras: Una serie de Get Even (2022) Temporada 1 NF WEB-DL 1080p Latino descargar gratis, descargar Animadoras Justicieras: Una serie de Get Even (2022) Temporada 1 NF WEB-DL 1080p Latino pelicula latino, Animadoras Justicieras: Una serie de Get Even (2022) Temporada 1 NF WEB-DL 1080p Latino 1 link mega, Animadoras Justicieras: Una serie de Get Even (2022) Temporada 1 NF WEB-DL 1080p Latino 1 link google drive, Animadoras Justicieras: Una serie de Get Even (2022) Temporada 1 NF WEB-DL 1080p Latino hd 1080p latino.
Comentarios 0