×

¿Problemas para descargar con Mozilla, EDGE? Deshabilita la opción "Abrir vinculos en una pestaña nueva" tal como lo muestra ésta imagen.

Angry Birds 2: La película (2019) REMUX 1080p Latino

881 vistas

Información de Angry Birds 2: La película (2019) REMUX 1080p Latino

Datos de la película

  • Calidad: Full 1080p
  • Audio: Español Latino AC3 5.1 BLURAY - Ingles DTS 5.1 BLURAY
  • Subtitulos: Español Latino PGS - Ingles PGS
  • Resolución: 1920x1080p
  • Formato: MKV
  • Codec: H.264
  • Encoder: CinefiloCool
  • Mediainfo: Clic para Mostrar Datos Ver
  • Angry Birds 2 (2019) REMUX 1080p Latino-CMHDD.mkv
    Format                      : Matroska
    Format version              : Version 4
    File size                   : 17.8 GiB
    Duration                    : 1 h 36 min
    Overall bit rate mode       : Variable
    Overall bit rate            : 26.3 Mb/s
    Movie name                  : CinemaniaHDD.Net
    Encoded date                : UTC 2019-11-01 05:00:00
    Writing application         : mkvmerge v38.0.0 ('The Silent Type') 64-bit
    Writing library             : libebml v1.3.9 + libmatroska v1.5.2
    Attachments                 : CINEMANIAHD.png

    Video
    ID                          : 1
    Format                      : AVC
    Format/Info                 : Advanced Video Codec
    Format profile              : High@L4.1
    Format settings             : CABAC / 2 Ref Frames
    Format settings, CABAC      : Yes
    Format settings, ReFrames   : 2 frames
    Format settings, GOP        : M=1, N=10
    Codec ID                    : V_MPEG4/ISO/AVC
    Duration                    : 1 h 36 min
    Bit rate mode               : Variable
    Bit rate                    : 22.7 Mb/s
    Width                       : 1 920 pixels
    Height                      : 1 080 pixels
    Display aspect ratio        : 16:9
    Frame rate mode             : Constant
    Frame rate                  : 23.976 (24000/1001) FPS
    Color space                 : YUV
    Chroma subsampling          : 4:2:0
    Bit depth                   : 8 bits
    Scan type                   : Progressive
    Bits/(Pixel*Frame)          : 0.456
    Stream size                 : 15.3 GiB (86%)
    Title                       : Fulll HD1080p [REMUX]
    Default                     : Yes
    Forced                      : Yes

    Audio #1
    ID                          : 2
    Format                      : AC-3
    Format/Info                 : Audio Coding 3
    Commercial name             : Dolby Digital
    Codec ID                    : A_AC3
    Duration                    : 1 h 36 min
    Bit rate mode               : Constant
    Bit rate                    : 640 kb/s
    Channel(s)                  : 6 channels
    Channel layout              : L R C LFE Ls Rs
    Sampling rate               : 48.0 kHz
    Frame rate                  : 31.250 FPS (1536 SPF)
    Bit depth                   : 16 bits
    Compression mode            : Lossy
    Stream size                 : 443 MiB (2%)
    Title                       : AC3_5.1_Bluray_Esp
    Language                    : Spanish
    Service kind                : Complete Main
    Default                     : Yes
    Forced                      : Yes

    Audio #2
    ID                          : 3
    Format                      : DTS XLL
    Format/Info                 : Digital Theater Systems
    Commercial name             : DTS-HD Master Audio
    Codec ID                    : A_DTS
    Duration                    : 1 h 36 min
    Bit rate mode               : Variable
    Bit rate                    : 2 296 kb/s
    Channel(s)                  : 6 channels
    Channel layout              : C L R Ls Rs LFE
    Sampling rate               : 48.0 kHz
    Frame rate                  : 93.750 FPS (512 SPF)
    Bit depth                   : 16 bits
    Compression mode            : Lossless
    Stream size                 : 1.55 GiB (9%)
    Title                       : DTS-HD_5.1_Bluray_Eng
    Language                    : English
    Default                     : No
    Forced                      : No

    Audio #3
    ID                          : 4
    Format                      : AC-3
    Format/Info                 : Audio Coding 3
    Commercial name             : Dolby Digital
    Codec ID                    : A_AC3
    Duration                    : 1 h 36 min
    Bit rate mode               : Constant
    Bit rate                    : 640 kb/s
    Channel(s)                  : 6 channels
    Channel layout              : L R C LFE Ls Rs
    Sampling rate               : 48.0 kHz
    Frame rate                  : 31.250 FPS (1536 SPF)
    Bit depth                   : 16 bits
    Compression mode            : Lossy
    Stream size                 : 443 MiB (2%)
    Title                       : AC3_5.1_Bluray_Eng
    Language                    : English
    Service kind                : Complete Main
    Default                     : No
    Forced                      : No

    Text #1
    ID                          : 5
    Format                      : PGS
    Muxing mode                 : zlib
    Codec ID                    : S_HDMV/PGS
    Codec ID/Info               : Picture based subtitle format used on BDs/HD-DVDs
    Duration                    : 1 h 36 min
    Bit rate                    : 390 b/s
    Count of elements           : 36
    Stream size                 : 275 KiB (0%)
    Title                       : Sub_Forzados [PGS]
    Language                    : Spanish
    Default                     : Yes
    Forced                      : Yes

    Text #2
    ID                          : 6
    Format                      : PGS
    Muxing mode                 : zlib
    Codec ID                    : S_HDMV/PGS
    Codec ID/Info               : Picture based subtitle format used on BDs/HD-DVDs
    Duration                    : 1 h 36 min
    Bit rate                    : 35.8 kb/s
    Count of elements           : 2738
    Stream size                 : 24.6 MiB (0%)
    Title                       : Sub_Esp [PGS]
    Language                    : Spanish
    Default                     : No
    Forced                      : No

    Text #3
    ID                          : 7
    Format                      : PGS
    Muxing mode                 : zlib
    Codec ID                    : S_HDMV/PGS
    Codec ID/Info               : Picture based subtitle format used on BDs/HD-DVDs
    Duration                    : 1 h 34 min
    Bit rate                    : 48.6 kb/s
    Count of elements           : 3518
    Stream size                 : 32.9 MiB (0%)
    Title                       : Sub_Eng [PGS]
    Language                    : English
    Default                     : No
    Forced                      : No

    Text #4
    ID                          : 8
    Format                      : UTF-8
    Codec ID                    : S_TEXT/UTF8
    Codec ID/Info               : UTF-8 Plain Text
    Duration                    : 1 h 6 min
    Bit rate                    : 0 b/s
    Count of elements           : 17
    Stream size                 : 394 Bytes (0%)
    Title                       : Sub_Forzados
    Language                    : Spanish
    Default                     : No
    Forced                      : No

    Text #5
    ID                          : 9
    Format                      : UTF-8
    Codec ID                    : S_TEXT/UTF8
    Codec ID/Info               : UTF-8 Plain Text
    Duration                    : 1 h 27 min
    Bit rate                    : 64 b/s
    Count of elements           : 1355
    Stream size                 : 41.8 KiB (0%)
    Title                       : Sub_Esp
    Language                    : Spanish
    Default                     : No
    Forced                      : No

    Menu
    00:00:00.000                : en:Chapter 01
    00:05:19.444                : en:Chapter 02
    00:12:05.766                : en:Chapter 03
    00:18:52.673                : en:Chapter 04
    00:24:11.658                : en:Chapter 05
    00:28:46.349                : en:Chapter 06
    00:34:48.252                : en:Chapter 07
    00:40:10.157                : en:Chapter 08
    00:47:11.078                : en:Chapter 09
    00:52:56.298                : en:Chapter 10
    00:58:04.481                : en:Chapter 11
    01:04:35.913                : en:Chapter 12
    01:09:55.649                : en:Chapter 13
    01:15:40.285                : en:Chapter 14
    01:21:11.116                : en:Chapter 15
    01:26:26.598                : en:Chapter 16

  • Peso: 17.8 GiB

Sinopsis

Descargar Angry Birds 2: La película (2019) REMUX 1080p Latino. Vuelven a la carga Red, el pájaro de color rojo con problemas de mal genio, y sus amigos Chuck, el pájaro amarillo hiperactivo, y Bomb, el pájaro negro muy volátil. En esta segunda parte, los pájaros protagonistas y los intrigantes cerdos de color verde llevarán su conflicto a un nuevo nivel. Y es que, aparecerá una nueva y malvada villana: Zeta, un pájaro que vive en una isla helada. Cuando Zeta lance una bola de hielo sobre la isla en la que se encuentran Red y compañía, nuestros protagonistas tendrán que hacer frente a esta nueva amenaza.

Ficha técnica

Video trailer de la película

Enlaces de descarga

Rip de Bluray

Descargar Angry Birds 2: La película (2019) REMUX 1080p Latino




Aportes de DPeliculasHDmega la pass es:dpeliculashdmega.org Aportes de CinemaniaHD la pass es:cinemaniahdd.com
Guardado en : Animación , Aventura , Comedia , Familia , Remux

Películas relacionadas

descargar Angry Birds 2: La película (2019) REMUX 1080p Latino Full 1080p 1080p gratis, Angry Birds 2: La película (2019) REMUX 1080p Latino Full 1080p mega 1 link, Angry Birds 2: La película (2019) REMUX 1080p Latino Full 1080p pelicula completa, descargar Angry Birds 2: La película (2019) REMUX 1080p Latino Full 1080p gratis en mega.

Angry Birds 2: La película (2019) REMUX 1080p Latino pelicula full hd, Angry Birds 2: La película (2019) REMUX 1080p Latino mega latino, Angry Birds 2: La película (2019) REMUX 1080p Latino 4k latino, Angry Birds 2: La película (2019) REMUX 1080p Latino pelicula completa, Angry Birds 2: La película (2019) REMUX 1080p Latino descargar gratis, descargar Angry Birds 2: La película (2019) REMUX 1080p Latino pelicula latino, Angry Birds 2: La película (2019) REMUX 1080p Latino 1 link mega, Angry Birds 2: La película (2019) REMUX 1080p Latino 1 link google drive, Angry Birds 2: La película (2019) REMUX 1080p Latino hd 1080p latino.
Comentarios 0