×

¿Problemas para descargar con Mozilla, EDGE? Deshabilita la opción "Abrir vinculos en una pestaña nueva" tal como lo muestra ésta imagen.

Angelyne (2022) Primera Temporada PCOK WEB-DL 1080p Latino

23 vistas

Información de Angelyne (2022) Primera Temporada PCOK WEB-DL 1080p Latino

Datos de la película

  • Calidad: 1080p
  • Audio: Español Latino AC3 2.0 WEB-DL - Ingles AC3 5.1 WEB-DL
  • Subtitulos: Español Latino SRT - Ingles SRT
  • Resolución: 1920x1080
  • Formato: MKV
  • Codec: H.264
  • Encoder: cinemaniahdd
  • Mediainfo: Clic para Mostrar Datos Ver
  • Angelyne T01E01 PCOK WEB-DL 1080p Latino [CNMNHDD].mkv
    Format                      : Matroska
    Format version              : Version 4
    File size                   : 2.64 GiB
    Duration                    : 52 min 23 s
    Overall bit rate            : 7 206 kb/s
    Movie name                  : Angelyne S01E01 - Dream Machine [1080p] - CinemaniaHDD.Net
    Encoded date                : UTC 2022-09-11 19:13:34
    Writing application         : mkvmerge v59.0.0 ('Shining Star') 64-bit
    Writing library             : libebml v1.4.2 + libmatroska v1.6.4

    Video
    ID                          : 1
    Format                      : AVC
    Format/Info                 : Advanced Video Codec
    Format profile              : High@L4
    Format settings             : CABAC / 4 Ref Frames
    Format settings, CABAC      : Yes
    Format settings, Reference  : 4 frames
    Codec ID                    : V_MPEG4/ISO/AVC
    Duration                    : 52 min 23 s
    Bit rate                    : 6 915 kb/s
    Nominal bit rate            : 7 814 kb/s
    Width                       : 1 920 pixels
    Height                      : 1 080 pixels
    Display aspect ratio        : 16:9
    Frame rate mode             : Constant
    Frame rate                  : 23.976 (24000/1001) FPS
    Color space                 : YUV
    Chroma subsampling          : 4:2:0
    Bit depth                   : 8 bits
    Scan type                   : Progressive
    Bits/(Pixel*Frame)          : 0.139
    Stream size                 : 2.53 GiB (96%)
    Title                       : CinemaniaHDD
    Writing library             : x264 core 163 r3060 5db6aa6
    Encoding settings           : cabac=1 / ref=4 / deblock=1:0:0 / analyse=0x3:0x113 / me=umh / subme=7 / psy=1 / psy_rd=0.00:0.00 / mixed_ref=1 / me_range=16 / chroma_me=1 / trellis=1 / 8x8dct=1 / cqm=0 / deadzone=21,11 / fast_pskip=0 / chroma_qp_offset=0 / threads=34 / lookahead_threads=5 / sliced_threads=0 / nr=0 / decimate=1 / interlaced=0 / bluray_compat=0 / constrained_intra=0 / bframes=16 / b_pyramid=2 / b_adapt=1 / b_bias=0 / direct=1 / weightb=1 / open_gop=0 / weightp=2 / keyint=48 / keyint_min=4 / scenecut=0 / intra_refresh=0 / rc_lookahead=40 / rc=2pass / mbtree=1 / bitrate=7814 / ratetol=1.0 / qcomp=0.60 / qpmin=10 / qpmax=51 / qpstep=4 / cplxblur=20.0 / qblur=0.5 / vbv_maxrate=7814 / vbv_bufsize=7814 / nal_hrd=none / filler=0 / ip_ratio=1.41 / aq=1:1.00
    Default                     : Yes
    Forced                      : No
    Color range                 : Limited
    Color primaries             : BT.709
    Transfer characteristics    : BT.709
    Matrix coefficients         : BT.709

    Audio #1
    ID                          : 2
    Format                      : AAC LC
    Format/Info                 : Advanced Audio Codec Low Complexity
    Codec ID                    : A_AAC-2
    Duration                    : 52 min 23 s
    Bit rate                    : 96.0 kb/s
    Channel(s)                  : 2 channels
    Channel layout              : L R
    Sampling rate               : 48.0 kHz
    Frame rate                  : 46.875 FPS (1024 SPF)
    Compression mode            : Lossy
    Stream size                 : 36.0 MiB (1%)
    Title                       : Español latino [CinemaniaHDD]
    Language                    : Spanish
    Default                     : No
    Forced                      : No

    Audio #2
    ID                          : 3
    Format                      : E-AC-3
    Format/Info                 : Enhanced AC-3
    Commercial name             : Dolby Digital Plus
    Codec ID                    : A_EAC3
    Duration                    : 52 min 23 s
    Bit rate mode               : Constant
    Bit rate                    : 192 kb/s
    Channel(s)                  : 6 channels
    Channel layout              : L R C LFE Ls Rs
    Sampling rate               : 48.0 kHz
    Frame rate                  : 31.250 FPS (1536 SPF)
    Compression mode            : Lossy
    Stream size                 : 72.0 MiB (3%)
    Title                       : Inglés [CinemaniaHDD]
    Language                    : English
    Service kind                : Complete Main
    Default                     : No
    Forced                      : No

    Text #1
    ID                          : 4
    Format                      : UTF-8
    Codec ID                    : S_TEXT/UTF8
    Codec ID/Info               : UTF-8 Plain Text
    Duration                    : 50 min 23 s
    Bit rate                    : 66 b/s
    Count of elements           : 880
    Stream size                 : 24.6 KiB (0%)
    Title                       : Español latino [CinemaniaHDD]
    Language                    : Spanish
    Default                     : No
    Forced                      : No

    Text #2
    ID                          : 5
    Format                      : UTF-8
    Codec ID                    : S_TEXT/UTF8
    Codec ID/Info               : UTF-8 Plain Text
    Duration                    : 52 min 1 s
    Bit rate                    : 75 b/s
    Count of elements           : 1091
    Stream size                 : 28.8 KiB (0%)
    Title                       : Inglés [CinemaniaHDD]
    Language                    : English
    Default                     : No
    Forced                      : No

     

  • Peso: 2.64 GiB Aprox ---- 12 GiB in 5 Chapters.

Sinopsis

Una bomba rubia misteriosa se apodera de las vallas publicitarias de Los Ángeles a mediados de los años 80, marcando el comienzo de la era de la cultura de los influencers famosos por ser famosos.

Ficha técnica

Video trailer de la película

Enlaces de descarga

Rip de Bluray

Descargar Angelyne (2022) Primera Temporada PCOK WEB-DL 1080p Latino




Aportes de DPeliculasHDmega la pass es:dpeliculashdmega.org Aportes de CinemaniaHD la pass es:cinemaniahdd.com
Guardado en : Drama , Series

Películas relacionadas

descargar Angelyne (2022) Primera Temporada PCOK WEB-DL 1080p Latino 1080p 1080p gratis, Angelyne (2022) Primera Temporada PCOK WEB-DL 1080p Latino 1080p mega 1 link, Angelyne (2022) Primera Temporada PCOK WEB-DL 1080p Latino 1080p serie completa, descargar Angelyne (2022) Primera Temporada PCOK WEB-DL 1080p Latino 1080p gratis en mega.

Angelyne (2022) Primera Temporada PCOK WEB-DL 1080p Latino pelicula full hd, Angelyne (2022) Primera Temporada PCOK WEB-DL 1080p Latino mega latino, Angelyne (2022) Primera Temporada PCOK WEB-DL 1080p Latino 4k latino, Angelyne (2022) Primera Temporada PCOK WEB-DL 1080p Latino pelicula completa, Angelyne (2022) Primera Temporada PCOK WEB-DL 1080p Latino descargar gratis, descargar Angelyne (2022) Primera Temporada PCOK WEB-DL 1080p Latino pelicula latino, Angelyne (2022) Primera Temporada PCOK WEB-DL 1080p Latino 1 link mega, Angelyne (2022) Primera Temporada PCOK WEB-DL 1080p Latino 1 link google drive, Angelyne (2022) Primera Temporada PCOK WEB-DL 1080p Latino hd 1080p latino.
Comentarios 0