×

¿Problemas para descargar con Mozilla, EDGE? Deshabilita la opción "Abrir vinculos en una pestaña nueva" tal como lo muestra ésta imagen.

Angels & Demons (2009) [EXTENDED] REMUX 1080p Latino – CMHDD

233 vistas

Información de Angels & Demons (2009) [EXTENDED] REMUX 1080p Latino – CMHDD

Datos de la película

  • Calidad: Full 1080p
  • Audio: Español Latino AC3 5.1 BLURAY - Ingles DTS 5.1 BLURAY
  • Subtitulos: Español Latino SRT- FORZADOS SRT
  • Resolución: 1920x1080p
  • Formato: MKV
  • Codec: H.264
  • Encoder: Dracarys
  • Mediainfo: Clic para Mostrar Datos Ver
  • Format                      : Matroska
    Format version              : Version 4
    File size                   : 28.9 GiB
    Duration                    : 2 h 26 min
    Overall bit rate mode       : Variable
    Overall bit rate            : 28.3 Mb/s
    Movie name                  : Angels & Demons (2009) [EXTENDED] REMUX 1080p Latino - CMHDD
    Encoded date                : UTC 2021-02-02 13:23:30
    Writing application         : mkvmerge v51.0.0 ('I Wish') 64-bit
    Writing library             : libebml v1.4.0 + libmatroska v1.6.2

    Video
    ID                          : 1
    Format                      : AVC
    Format/Info                 : Advanced Video Codec
    Format profile              : High@L4.1
    Format settings             : CABAC / 2 Ref Frames
    Format settings, CABAC      : Yes
    Format settings, Reference  : 2 frames
    Codec ID                    : V_MPEG4/ISO/AVC
    Duration                    : 2 h 26 min
    Bit rate mode               : Variable
    Bit rate                    : 24.1 Mb/s
    Width                       : 1 920 pixels
    Height                      : 1 080 pixels
    Display aspect ratio        : 16:9
    Frame rate mode             : Constant
    Frame rate                  : 23.976 (24000/1001) FPS
    Color space                 : YUV
    Chroma subsampling          : 4:2:0
    Bit depth                   : 8 bits
    Scan type                   : Progressive
    Bits/(Pixel*Frame)          : 0.486
    Stream size                 : 24.7 GiB (85%)
    Default                     : Yes
    Forced                      : No

    Audio #1
    ID                          : 2
    Format                      : AC-3
    Format/Info                 : Audio Coding 3
    Commercial name             : Dolby Digital
    Codec ID                    : A_AC3
    Duration                    : 2 h 26 min
    Bit rate mode               : Constant
    Bit rate                    : 384 kb/s
    Channel(s)                  : 6 channels
    Channel layout              : L R C LFE Ls Rs
    Sampling rate               : 48.0 kHz
    Frame rate                  : 31.250 FPS (1536 SPF)
    Compression mode            : Lossy
    Delay relative to video     : 24 ms
    Stream size                 : 402 MiB (1%)
    Language                    : Spanish
    Service kind                : Complete Main
    Default                     : Yes
    Forced                      : No

    Audio #2
    ID                          : 3
    Format                      : DTS XLL
    Format/Info                 : Digital Theater Systems
    Commercial name             : DTS-HD Master Audio
    Codec ID                    : A_DTS
    Duration                    : 2 h 26 min
    Bit rate mode               : Variable
    Bit rate                    : 3 758 kb/s
    Channel(s)                  : 6 channels
    Channel layout              : C L R Ls Rs LFE
    Sampling rate               : 48.0 kHz
    Frame rate                  : 93.750 FPS (512 SPF)
    Bit depth                   : 24 bits
    Compression mode            : Lossless
    Stream size                 : 3.84 GiB (13%)
    Language                    : English
    Default                     : No
    Forced                      : No

    Text #1
    ID                          : 4
    Format                      : UTF-8
    Codec ID                    : S_TEXT/UTF8
    Codec ID/Info               : UTF-8 Plain Text
    Duration                    : 2 h 23 min
    Bit rate                    : 3 b/s
    Count of elements           : 89
    Stream size                 : 3.16 KiB (0%)
    Language                    : Spanish
    Default                     : Yes
    Forced                      : No

    Text #2
    ID                          : 5
    Format                      : UTF-8
    Codec ID                    : S_TEXT/UTF8
    Codec ID/Info               : UTF-8 Plain Text
    Duration                    : 2 h 24 min
    Bit rate                    : 47 b/s
    Count of elements           : 1389
    Stream size                 : 49.9 KiB (0%)
    Language                    : Spanish
    Default                     : No
    Forced                      : No

  • Peso: 28.9 GiB

Sinopsis

Robert Langdon descubre la prueba de la reaparición de una antigua hermandad secreta conocida como los Illuminati: la más poderosa organización secreta en la historia, que a su vez también se enfrenta a una amenaza que hace que peligre su existencia: la Iglesia Católica. Cuando Langdon se entera de que los Illuminati conspiran en contra de la Iglesia intentando detonar una bomba de antimateria, él se dirige a Roma, donde une fuerzas con Vittoria Vetra.

Ficha técnica

Video trailer de la película

Enlaces de descarga

Rip de Bluray

Descargar Angels & Demons (2009) [EXTENDED] REMUX 1080p Latino – CMHDD


Aportes de DPeliculasHDmega la pass es:dpeliculashdmega.org Aportes de CinemaniaHD la pass es:cinemaniahdd.com
Guardado en : Misterio , Suspenso

Películas relacionadas

  • Emily la criminal (2022) HD 1080p Latino

    Emily la criminal (2022) HD 1080p Latino

    2022
    Emily la criminal (2022) HD 1080p Latino

    1h 37m 2022

    Descargar Emily la criminal (2022) HD 1080p Latino. Emily, que tiene una deuda estudiantil y está excluida...

    Director: John Patton Ford

    Género: Crimen

    Actores: Theo Rossi

  • Emily la criminal (2022) REMUX 1080p Latino

    Emily la criminal (2022) REMUX 1080p Latino

    2022
    Emily la criminal (2022) REMUX 1080p Latino

    1h 37m 2022

    Descargar Emily la criminal (2022) REMUX 1080p Latino. Emily, que tiene una deuda estudiantil y está...

    Director: John Patton Ford

    Género: Crimen

    Actores: Theo Rossi

  • Herencia peligrosa (2022) HD 1080p Latino

    Herencia peligrosa (2022) HD 1080p Latino

    2022
    Herencia peligrosa (2022) HD 1080p Latino

    1h 34m 2022

    Descargar Herencia peligrosa (2022) HD 1080p Latino. Tres ladrones se hacen con el yate de lujo de una...

    Director: Declan Whitebloom

    Género: Acción

    Actores: Vernon Davis

descargar Angels & Demons (2009) [EXTENDED] REMUX 1080p Latino – CMHDD Full 1080p 1080p gratis, Angels & Demons (2009) [EXTENDED] REMUX 1080p Latino – CMHDD Full 1080p mega 1 link, Angels & Demons (2009) [EXTENDED] REMUX 1080p Latino – CMHDD Full 1080p pelicula completa, descargar Angels & Demons (2009) [EXTENDED] REMUX 1080p Latino – CMHDD Full 1080p gratis en mega.

Angels & Demons (2009) [EXTENDED] REMUX 1080p Latino – CMHDD pelicula full hd, Angels & Demons (2009) [EXTENDED] REMUX 1080p Latino – CMHDD mega latino, Angels & Demons (2009) [EXTENDED] REMUX 1080p Latino – CMHDD 4k latino, Angels & Demons (2009) [EXTENDED] REMUX 1080p Latino – CMHDD pelicula completa, Angels & Demons (2009) [EXTENDED] REMUX 1080p Latino – CMHDD descargar gratis, descargar Angels & Demons (2009) [EXTENDED] REMUX 1080p Latino – CMHDD pelicula latino, Angels & Demons (2009) [EXTENDED] REMUX 1080p Latino – CMHDD 1 link mega, Angels & Demons (2009) [EXTENDED] REMUX 1080p Latino – CMHDD 1 link google drive, Angels & Demons (2009) [EXTENDED] REMUX 1080p Latino – CMHDD hd 1080p latino.
Comentarios 0