×

¿Problemas para descargar con Mozilla, EDGE? Deshabilita la opción "Abrir vinculos en una pestaña nueva" tal como lo muestra ésta imagen.

Agente bajo fuego (2019) REMUX 1080p Latino

999 vistas

Información de Agente bajo fuego (2019) REMUX 1080p Latino

Datos de la película

  • Calidad: Full 1080p
  • Audio: Se especifica abajo de la Sinopsis
  • Subtitulos: Español Latino PGS - Ingles PGS
  • Resolución: 1920x1080p
  • Formato: MKV
  • Codec: H.264
  • Encoder: CinemaniaHDD
  • Mediainfo: Clic para Mostrar Datos Ver
  • Angel Has Fallen (2019) REMUX 1080p Latino.mkv
    Format                      : Matroska
    Format version              : Version 4
    File size                   : 29.6 GiB
    Duration                    : 2 h 1 min
    Overall bit rate mode       : Variable
    Overall bit rate            : 34.9 Mb/s
    Movie name                  : Angel Has Fallen (2019) - CinemaniaHDD.Net
    Encoded date                : UTC 2019-11-16 18:27:41
    Writing application         : mkvmerge v38.0.0 ('The Silent Type') 64-bit
    Writing library             : libebml v1.3.9 + libmatroska v1.5.2

    Video
    ID                          : 1
    Format                      : AVC
    Format/Info                 : Advanced Video Codec
    Format profile              : High@L4.1
    Format settings             : CABAC / 4 Ref Frames
    Format settings, CABAC      : Yes
    Format settings, ReFrames   : 4 frames
    Codec ID                    : V_MPEG4/ISO/AVC
    Duration                    : 2 h 1 min
    Bit rate mode               : Variable
    Bit rate                    : 31.3 Mb/s
    Maximum bit rate            : 37.0 Mb/s
    Width                       : 1 920 pixels
    Height                      : 1 080 pixels
    Display aspect ratio        : 16:9
    Frame rate mode             : Constant
    Frame rate                  : 23.976 (23976/1000) FPS
    Original frame rate         : 23.976 (24000/1001) FPS
    Color space                 : YUV
    Chroma subsampling          : 4:2:0
    Bit depth                   : 8 bits
    Scan type                   : Progressive
    Bits/(Pixel*Frame)          : 0.630
    Stream size                 : 26.5 GiB (90%)
    Title                       : CinemaniaHDD
    Default                     : Yes
    Forced                      : No

    Audio #1
    ID                          : 2
    Format                      : AC-3
    Format/Info                 : Audio Coding 3
    Commercial name             : Dolby Digital
    Codec ID                    : A_AC3
    Duration                    : 2 h 1 min
    Bit rate mode               : Constant
    Bit rate                    : 448 kb/s
    Channel(s)                  : 6 channels
    Channel layout              : L R C LFE Ls Rs
    Sampling rate               : 48.0 kHz
    Frame rate                  : 31.250 FPS (1536 SPF)
    Bit depth                   : 16 bits
    Compression mode            : Lossy
    Stream size                 : 388 MiB (1%)
    Title                       : Español latino [CinemaniaHDD]
    Language                    : Spanish
    Service kind                : Complete Main
    Default                     : Yes
    Forced                      : No

    Audio #2
    ID                          : 3
    Format                      : MLP FBA 16-ch
    Format/Info                 : Meridian Lossless Packing FBA with 16-channel presentation
    Commercial name             : Dolby TrueHD with Dolby Atmos
    Codec ID                    : A_TRUEHD
    Duration                    : 2 h 1 min
    Bit rate mode               : Variable
    Bit rate                    : 3 046 kb/s
    Maximum bit rate            : 4 485 kb/s
    Channel(s)                  : 8 channels
    Channel layout              : L R C LFE Ls Rs Lb Rb
    Sampling rate               : 48.0 kHz
    Frame rate                  : 1 200.000 FPS (40 SPF)
    Compression mode            : Lossless
    Stream size                 : 2.58 GiB (9%)
    Title                       : Inglés [CinemaniaHDD]
    Language                    : English
    Default                     : No
    Forced                      : No
    Number of dynamic objects   : 11
    Bed channel count           : 1 channel
    Bed channel configuration   : LFE

    Text #1
    ID                          : 4
    Format                      : UTF-8
    Codec ID                    : S_TEXT/UTF8
    Codec ID/Info               : UTF-8 Plain Text
    Duration                    : 1 h 30 min
    Bit rate                    : 0 b/s
    Count of elements           : 11
    Stream size                 : 205 Bytes (0%)
    Title                       : Forzados [CinemaniaHDD]
    Language                    : Spanish
    Default                     : Yes
    Forced                      : Yes

    Text #2
    ID                          : 5
    Format                      : PGS
    Muxing mode                 : zlib
    Codec ID                    : S_HDMV/PGS
    Codec ID/Info               : Picture based subtitle format used on BDs/HD-DVDs
    Duration                    : 1 h 51 min
    Bit rate                    : 34.4 kb/s
    Count of elements           : 2731
    Stream size                 : 27.5 MiB (0%)
    Title                       : Español latino [CinemaniaHDD]
    Language                    : Spanish
    Default                     : No
    Forced                      : No

    Text #3
    ID                          : 6
    Format                      : PGS
    Muxing mode                 : zlib
    Codec ID                    : S_HDMV/PGS
    Codec ID/Info               : Picture based subtitle format used on BDs/HD-DVDs
    Duration                    : 1 h 52 min
    Bit rate                    : 45.1 kb/s
    Count of elements           : 3109
    Stream size                 : 36.4 MiB (0%)
    Title                       : Inglés [CinemaniaHDD]
    Language                    : English
    Default                     : No
    Forced                      : No

    Menu
    00:00:00.000                : :Chapter 01
    00:06:48.950                : :Chapter 02
    00:15:08.157                : :Chapter 03
    00:23:13.809                : :Chapter 04
    00:28:35.713                : :Chapter 05
    00:39:39.627                : :Chapter 06
    00:45:33.564                : :Chapter 07
    00:50:56.052                : :Chapter 08
    00:59:23.393                : :Chapter 09
    01:06:50.881                : :Chapter 10
    01:16:25.872                : :Chapter 11
    01:24:11.045                : :Chapter 12
    01:30:14.408                : :Chapter 13
    01:37:42.064                : :Chapter 14
    01:44:54.538                : :Chapter 15
    01:51:08.119                : :Chapter 16

  • Peso: 29.6 GiB

Sinopsis

Descargar Agente bajo fuego (2019) REMUX 1080p Latino. Tras las amenazas a la Casa Blanca y Londres, esta vez el objetivo a batir es el agente del Servicio Secreto de Estados Unidos Banning (Gerard Butler), quien se ha ganado muchos enemigos al haber frustrado los diferentes planes terroristas hasta ahora.

Audio Español Latino AC3 5.1 Bluray – Ingles TrueHD 7.1 Bluray

Ficha técnica

  • Titulo original: Angel Has Fallen
  • Fecha de lanzamiento: 21-08-2019 (United States of America)
  • Director: Ric Roman Waugh
  • Género: Acción, Remux

Video trailer de la película

Enlaces de descarga

Rip de Bluray

Descargar Agente bajo fuego (2019) REMUX 1080p Latino




Aportes de DPeliculasHDmega la pass es:dpeliculashdmega.org Aportes de CinemaniaHD la pass es:cinemaniahdd.com
Guardado en : Acción , Remux

Películas relacionadas

  • Wire Room (2022) HD 1080p Latino

    Wire Room (2022) HD 1080p Latino

    2022
    Wire Room (2022) HD 1080p Latino

    1h 37m 2022

    Descargar Wire Room (2022) HD 1080p Latino. Mientras está de servicio en la sala de cables, un agente...

    Director: Matt Eskandari

    Género: Acción

    Actores: Texas Battle

  • Wire Room (2022) PLACEBO Full HD 1080p Latino

    Wire Room (2022) PLACEBO Full HD 1080p Latino

    2022
    Wire Room (2022) PLACEBO Full HD 1080p Latino

    1h 37m 2022

    Descargar Wire Room (2022) PLACEBO Full HD 1080p Latino. Mientras está de servicio en la sala de cables,...

    Director: Matt Eskandari

    Género: Acción

    Actores: Texas Battle

  • Wire Room (2022) REMUX 1080p Latino

    Wire Room (2022) REMUX 1080p Latino

    2022
    Wire Room (2022) REMUX 1080p Latino

    1h 37m 2022

    Descargar Wire Room (2022) REMUX 1080p Latino. Mientras está de servicio en la sala de cables, un agente...

    Director: Matt Eskandari

    Género: Acción

    Actores: Texas Battle

  • Alarido (2022) REMUX 1080p Latino

    Alarido (2022) REMUX 1080p Latino

    2022
    Alarido (2022) REMUX 1080p Latino

    1h 29m 2022

    Descargar Alarido (2022) REMUX 1080p Latino. Una joven madre soltera es cautiva junto con sus dos hijos...

    Director: D.J. Caruso

    Género: Remux

    Actores: Vincent Gallo

  • El Cuartel Secreto (2022) WEB-DL 4K UHD HDR Latino

    El Cuartel Secreto (2022) WEB-DL 4K UHD HDR Latino

    2022
    El Cuartel Secreto (2022) WEB-DL 4K UHD HDR Latino

    1h 44m 2022

    Descargar El Cuartel Secreto (2022) WEB-DL 4K UHD HDR Latino. Mientras pasan el rato después de la escuela,...

    Director: Henry Joost

    Género: 4K HDR

    Actores: Zeb Slone

descargar Agente bajo fuego (2019) REMUX 1080p Latino Full 1080p 1080p gratis, Agente bajo fuego (2019) REMUX 1080p Latino Full 1080p mega 1 link, Agente bajo fuego (2019) REMUX 1080p Latino Full 1080p pelicula completa, descargar Agente bajo fuego (2019) REMUX 1080p Latino Full 1080p gratis en mega.

Agente bajo fuego (2019) REMUX 1080p Latino pelicula full hd, Agente bajo fuego (2019) REMUX 1080p Latino mega latino, Agente bajo fuego (2019) REMUX 1080p Latino 4k latino, Agente bajo fuego (2019) REMUX 1080p Latino pelicula completa, Agente bajo fuego (2019) REMUX 1080p Latino descargar gratis, descargar Agente bajo fuego (2019) REMUX 1080p Latino pelicula latino, Agente bajo fuego (2019) REMUX 1080p Latino 1 link mega, Agente bajo fuego (2019) REMUX 1080p Latino 1 link google drive, Agente bajo fuego (2019) REMUX 1080p Latino hd 1080p latino.
Comentarios 0