Angel Falls: A Novel Holiday (2019) Star WEB-DL 1080p Latino

19 vistas
1 estrella2 estrellas3 estrellas4 estrellas5 estrellas (1 votos, promedio: 5,00 de 5)
Cargando...

Información de Angel Falls: A Novel Holiday (2019) Star WEB-DL 1080p Latino

Datos de la película

  • Calidad: WEBDL
  • Audio: Español Latino AC3 2.0 - Ingles AC3 2.0
  • Subtitulos: Español Latino SRT- FORZADOS SRT
  • Resolución: 1920x1080
  • Formato: MKV
  • Codec: H.264
  • Encoder: cinemaniahdd
  • Mediainfo: Clic para Mostrar Datos Ver
  • Angel Falls, A Novel Holiday (2019) Star WEB-DL 1080p Latino [CNMNHDD].mkv
    Format                      : Matroska
    Format version              : Version 4
    File size                   : 3.04 GiB
    Duration                    : 1 h 23 min
    Overall bit rate            : 5 200 kb/s
    Movie name                  : Angel Falls, A Novel Holiday (2019) - CinemaniaHDD.Net
    Encoded date                : UTC 2021-05-02 23:31:29
    Writing application         : mkvmerge v56.1.0 ('My Friend') 64-bit
    Writing library             : libebml v1.4.2 + libmatroska v1.6.4

    Video
    ID                          : 1
    Format                      : AVC
    Format/Info                 : Advanced Video Codec
    Format profile              : High@L4
    Format settings             : CABAC / 2 Ref Frames
    Format settings, CABAC      : Yes
    Format settings, Reference  : 2 frames
    Codec ID                    : V_MPEG4/ISO/AVC
    Duration                    : 1 h 23 min
    Bit rate                    : 5 000 kb/s
    Width                       : 1 920 pixels
    Height                      : 1 080 pixels
    Display aspect ratio        : 16:9
    Frame rate mode             : Constant
    Frame rate                  : 29.970 FPS
    Color space                 : YUV
    Chroma subsampling          : 4:2:0
    Bit depth                   : 8 bits
    Scan type                   : Progressive
    Bits/(Pixel*Frame)          : 0.080
    Stream size                 : 2.89 GiB (95%)
    Title                       : CinemaniaHDD
    Writing library             : x264 core 148 r2579M 73ae2d1
    Encoding settings           : cabac=1 / ref=2 / deblock=1:0:0 / analyse=0x3:0x113 / me=hex / subme=2 / psy=1 / psy_rd=1.00:0.00 / mixed_ref=0 / me_range=16 / chroma_me=1 / trellis=0 / 8x8dct=1 / cqm=0 / deadzone=21,11 / fast_pskip=1 / chroma_qp_offset=0 / threads=4 / lookahead_threads=1 / sliced_threads=0 / nr=250 / decimate=1 / interlaced=0 / bluray_compat=0 / stitchable=1 / constrained_intra=0 / bframes=0 / weightp=1 / keyint=250 / keyint_min=25 / scenecut=40 / intra_refresh=0 / rc_lookahead=10 / rc=2pass / mbtree=1 / bitrate=5000 / ratetol=1.0 / qcomp=0.60 / qpmin=5 / qpmax=69 / qpstep=4 / cplxblur=20.0 / qblur=0.5 / vbv_maxrate=10000 / vbv_bufsize=5000 / nal_hrd=none / filler=0 / ip_ratio=1.40 / aq=1:1.00
    Language                    : Spanish
    Default                     : Yes
    Forced                      : No
    Color range                 : Limited
    Color primaries             : BT.709
    Transfer characteristics    : BT.709
    Matrix coefficients         : BT.709

    Audio #1
    ID                          : 2
    Format                      : AAC LC SBR
    Format/Info                 : Advanced Audio Codec Low Complexity with Spectral Band Replication
    Commercial name             : HE-AAC
    Format settings             : Explicit
    Codec ID                    : A_AAC-2
    Duration                    : 1 h 23 min
    Bit rate                    : 127 kb/s
    Channel(s)                  : 2 channels
    Channel layout              : L R
    Sampling rate               : 48.0 kHz
    Frame rate                  : 23.438 FPS (2048 SPF)
    Compression mode            : Lossy
    Stream size                 : 76.0 MiB (2%)
    Title                       : Español latino [CinemaniaHDD]
    Language                    : Spanish
    Default                     : Yes
    Forced                      : No

    Audio #2
    ID                          : 3
    Format                      : AAC LC SBR
    Format/Info                 : Advanced Audio Codec Low Complexity with Spectral Band Replication
    Commercial name             : HE-AAC
    Format settings             : Explicit
    Codec ID                    : A_AAC-2
    Duration                    : 1 h 23 min
    Bit rate                    : 127 kb/s
    Channel(s)                  : 2 channels
    Channel layout              : L R
    Sampling rate               : 48.0 kHz
    Frame rate                  : 23.438 FPS (2048 SPF)
    Compression mode            : Lossy
    Stream size                 : 76.0 MiB (2%)
    Title                       : Inglés [CinemaniaHDD]
    Language                    : English
    Default                     : No
    Forced                      : No

    Text #1
    ID                          : 4
    Format                      : UTF-8
    Codec ID                    : S_TEXT/UTF8
    Codec ID/Info               : UTF-8 Plain Text
    Duration                    : 52 min 26 s
    Bit rate                    : 0 b/s
    Count of elements           : 5
    Stream size                 : 123 Bytes (0%)
    Title                       : Forzados [CinemaniaHDD]
    Language                    : Spanish
    Default                     : Yes
    Forced                      : Yes

    Text #2
    ID                          : 5
    Format                      : UTF-8
    Codec ID                    : S_TEXT/UTF8
    Codec ID/Info               : UTF-8 Plain Text
    Duration                    : 1 h 22 min
    Bit rate                    : 75 b/s
    Count of elements           : 1439
    Stream size                 : 45.4 KiB (0%)
    Title                       : Español latino [CinemaniaHDD]
    Language                    : Spanish
    Default                     : No
    Forced                      : No

     

  • Peso: 3.04 GiB

Sinopsis

Hannah, una editora de libros, debe trabajar en equipo con Ryan, su antiguo rival, para ayudar a una potencial escritora a encontrar su camino. Por su parte, Angel Anthony les recuerda el espíritu navideño y el valor de la comunidad.

Ficha técnica

Video trailer de la película

Enlaces de descarga

Rip de Bluray

Descargar Angel Falls: A Novel Holiday (2019) Star WEB-DL 1080p Latino




Aportes de DPeliculasHDmega la pass es:dpeliculashdmega.org Aportes de CinemaniaHD la pass es:cinemaniahdd.com
Guardado en : Película de TV , Romance

Películas relacionadas

  • Loco Y Estúpido Amor (2011) 1080p Latino

    Loco Y Estúpido Amor (2011) 1080p Latino

    2011
    Loco Y Estúpido Amor (2011) 1080p Latino

    0.0 1h 58m 2011

    Descargar Loco Y Estúpido Amor (2011) 1080p Latino. La situación del cuarentón y puritano Cal Weaver...

    Director: John Requa

    Género: Comedia

    Actores: Zayne Emory

  • Loco Y Estúpido Amor (2011) Full HD 1080p Latino

    Loco Y Estúpido Amor (2011) Full HD 1080p Latino

    2011
    Loco Y Estúpido Amor (2011) Full HD 1080p Latino

    0.0 1h 58m 2011

    Descargar Loco Y Estúpido Amor (2011) Full HD 1080p Latino. La situación del cuarentón y puritano...

    Director: John Requa

    Género: Comedia

    Actores: Zayne Emory

  • Loco Y Estúpido Amor (2011) REMUX 1080p Latino

    Loco Y Estúpido Amor (2011) REMUX 1080p Latino

    2011
    Loco Y Estúpido Amor (2011) REMUX 1080p Latino

    5.0 1h 58m 2011

    Descargar Loco Y Estúpido Amor (2011) REMUX 1080p Latino. La situación del cuarentón y puritano Cal...

    Director: John Requa

    Género: Comedia

    Actores: Zayne Emory

  • Love in the Forecast (2020) Star WEB-DL 1080p Latino

    Love in the Forecast (2020) Star WEB-DL 1080p Latino

    2020
    Love in the Forecast (2020) Star WEB-DL 1080p Latino

    5.0 1h 20m 2020

    Luego de renunciar a las citas durante todo un año, Leah rápidamente cae en la cuenta de que su nuevo...

    Director: Christie Will

    Género: Película de TV

    Actores: Ryan McDonell

Angel Falls: A Novel Holiday (2019) Star WEB-DL 1080p Latino pelicula full hd, Angel Falls: A Novel Holiday (2019) Star WEB-DL 1080p Latino mega latino, Angel Falls: A Novel Holiday (2019) Star WEB-DL 1080p Latino 4k latino, Angel Falls: A Novel Holiday (2019) Star WEB-DL 1080p Latino pelicula completa, Angel Falls: A Novel Holiday (2019) Star WEB-DL 1080p Latino descargar gratis, descargar Angel Falls: A Novel Holiday (2019) Star WEB-DL 1080p Latino pelicula latino, Angel Falls: A Novel Holiday (2019) Star WEB-DL 1080p Latino 1 link mega, Angel Falls: A Novel Holiday (2019) Star WEB-DL 1080p Latino 1 link google drive, Angel Falls: A Novel Holiday (2019) Star WEB-DL 1080p Latino hd 1080p latino.
Comentarios 0