×

¿Problemas para descargar con Mozilla, EDGE? Deshabilita la opción "Abrir vinculos en una pestaña nueva" tal como lo muestra ésta imagen.

Anchorman The Legend of Ron Burgundy (2004) REMUX 1080p Latino – CMHDD

218 vistas

Información de Anchorman The Legend of Ron Burgundy (2004) REMUX 1080p Latino – CMHDD

Datos de la película

  • Calidad: Full 1080p
  • Audio: Español Latino AC3 5.1 BLURAY - Ingles DTS 5.1 BLURAY
  • Subtitulos: Español Latino PGS
  • Resolución: 1920x1080p
  • Formato: MKV
  • Codec: H.264
  • Encoder: Dracarys
  • Mediainfo: Clic para Mostrar Datos Ver
  • Format                      : Matroska
    Format version              : Version 4
    File size                   : 26.3 GiB
    Duration                    : 1 h 34 min
    Overall bit rate mode       : Variable
    Overall bit rate            : 40.1 Mb/s
    Movie name                  : Anchorman: The Legend of Ron Burgundy (2004) REMUX 1080p Latino - CMHDD
    Encoded date                : UTC 2022-01-30 17:59:16
    Writing application         : mkvmerge v17.0.0 ('Be Ur Friend') 64-bit
    Writing library             : libebml v1.3.5 + libmatroska v1.4.8

    Video
    ID                          : 1
    Format                      : AVC
    Format/Info                 : Advanced Video Codec
    Format profile              : High@L4.1
    Format settings             : CABAC / 4 Ref Frames
    Format settings, CABAC      : Yes
    Format settings, Reference  : 4 frames
    Codec ID                    : V_MPEG4/ISO/AVC
    Duration                    : 1 h 34 min
    Bit rate mode               : Variable
    Bit rate                    : 35.9 Mb/s
    Maximum bit rate            : 39.0 Mb/s
    Width                       : 1 920 pixels
    Height                      : 1 080 pixels
    Display aspect ratio        : 16:9
    Frame rate mode             : Constant
    Frame rate                  : 23.976 (23976/1000) FPS
    Original frame rate         : 23.976 (24000/1001) FPS
    Color space                 : YUV
    Chroma subsampling          : 4:2:0
    Bit depth                   : 8 bits
    Scan type                   : Progressive
    Bits/(Pixel*Frame)          : 0.723
    Stream size                 : 23.6 GiB (90%)
    Default                     : Yes
    Forced                      : No
    Color range                 : Limited
    Color primaries             : BT.709
    Transfer characteristics    : BT.709
    Matrix coefficients         : BT.709

    Audio #1
    ID                          : 2
    Format                      : DTS XLL
    Format/Info                 : Digital Theater Systems
    Commercial name             : DTS-HD Master Audio
    Codec ID                    : A_DTS
    Duration                    : 1 h 34 min
    Bit rate mode               : Variable
    Bit rate                    : 3 450 kb/s
    Channel(s)                  : 6 channels
    Channel layout              : C L R Ls Rs LFE
    Sampling rate               : 48.0 kHz
    Frame rate                  : 93.750 FPS (512 SPF)
    Bit depth                   : 24 bits
    Compression mode            : Lossless
    Stream size                 : 2.27 GiB (9%)
    Language                    : English
    Default                     : No
    Forced                      : No

    Audio #2
    ID                          : 3
    Format                      : AC-3
    Format/Info                 : Audio Coding 3
    Commercial name             : Dolby Digital
    Codec ID                    : A_AC3
    Duration                    : 1 h 34 min
    Bit rate mode               : Constant
    Bit rate                    : 640 kb/s
    Channel(s)                  : 6 channels
    Channel layout              : L R C LFE Ls Rs
    Sampling rate               : 48.0 kHz
    Frame rate                  : 31.250 FPS (1536 SPF)
    Compression mode            : Lossy
    Stream size                 : 431 MiB (2%)
    Language                    : Spanish
    Service kind                : Complete Main
    Default                     : Yes
    Forced                      : No

    Text #1
    ID                          : 4
    Format                      : PGS
    Muxing mode                 : zlib
    Codec ID                    : S_HDMV/PGS
    Codec ID/Info               : Picture based subtitle format used on BDs/HD-DVDs
    Duration                    : 1 h 33 min
    Bit rate                    : 58.1 kb/s
    Count of elements           : 2491
    Stream size                 : 39.1 MiB (0%)
    Language                    : Spanish
    Default                     : No
    Forced                      : No

    Text #2
    ID                          : 5
    Format                      : PGS
    Muxing mode                 : zlib
    Codec ID                    : S_HDMV/PGS
    Codec ID/Info               : Picture based subtitle format used on BDs/HD-DVDs
    Duration                    : 1 h 33 min
    Bit rate                    : 394 b/s
    Count of elements           : 28
    Stream size                 : 272 KiB (0%)
    Language                    : Spanish
    Default                     : No
    Forced                      : No

    Menu
    00:00:00.000                : en:Chapter 1
    00:03:41.137                : en:Chapter 2
    00:05:48.890                : en:Chapter 3
    00:11:16.217                : en:Chapter 4
    00:12:54.607                : en:Chapter 5
    00:17:15.284                : en:Chapter 6
    00:20:15.505                : en:Chapter 7
    00:24:52.032                : en:Chapter 8
    00:30:52.225                : en:Chapter 9
    00:36:14.088                : en:Chapter 10
    00:38:34.729                : en:Chapter 11
    00:43:18.095                : en:Chapter 12
    00:47:04.529                : en:Chapter 13
    00:50:47.961                : en:Chapter 14
    00:59:03.790                : en:Chapter 15
    01:05:12.783                : en:Chapter 16
    01:08:22.681                : en:Chapter 17
    01:11:41.171                : en:Chapter 18
    01:20:08.136                : en:Chapter 19
    01:29:22.482                : en:Chapter 20

  • Peso: 26.3 GiB

Sinopsis

Ron Burgundy (Will Ferrell) es el presentador de noticias más famoso de San Diego en los años setenta. Cuando se entera de que Veronica Corningstone (Christina Applegate), una reportera feminista y ambiciosa, va a trabajar con él, Ron está de acuerdo mientras la nueva se ocupe de las exposiciones de gatos, cocina y otras especialidades «femeninas». Pero Veronica no está dispuesta a ser un florero: quiere sentarse detrás de la mesa del presentador. A partir de ese momento, ya no se trata de un enfrentamiento, sino de una guerra abierta entre los dos.

Ficha técnica

Video trailer de la película

Enlaces de descarga

Rip de Bluray

Descargar Anchorman The Legend of Ron Burgundy (2004) REMUX 1080p Latino – CMHDD


Aportes de DPeliculasHDmega la pass es:dpeliculashdmega.org Aportes de CinemaniaHD la pass es:cinemaniahdd.com
Guardado en : Comedia

Películas relacionadas

descargar Anchorman The Legend of Ron Burgundy (2004) REMUX 1080p Latino – CMHDD Full 1080p 1080p gratis, Anchorman The Legend of Ron Burgundy (2004) REMUX 1080p Latino – CMHDD Full 1080p mega 1 link, Anchorman The Legend of Ron Burgundy (2004) REMUX 1080p Latino – CMHDD Full 1080p pelicula completa, descargar Anchorman The Legend of Ron Burgundy (2004) REMUX 1080p Latino – CMHDD Full 1080p gratis en mega.

Anchorman The Legend of Ron Burgundy (2004) REMUX 1080p Latino – CMHDD pelicula full hd, Anchorman The Legend of Ron Burgundy (2004) REMUX 1080p Latino – CMHDD mega latino, Anchorman The Legend of Ron Burgundy (2004) REMUX 1080p Latino – CMHDD 4k latino, Anchorman The Legend of Ron Burgundy (2004) REMUX 1080p Latino – CMHDD pelicula completa, Anchorman The Legend of Ron Burgundy (2004) REMUX 1080p Latino – CMHDD descargar gratis, descargar Anchorman The Legend of Ron Burgundy (2004) REMUX 1080p Latino – CMHDD pelicula latino, Anchorman The Legend of Ron Burgundy (2004) REMUX 1080p Latino – CMHDD 1 link mega, Anchorman The Legend of Ron Burgundy (2004) REMUX 1080p Latino – CMHDD 1 link google drive, Anchorman The Legend of Ron Burgundy (2004) REMUX 1080p Latino – CMHDD hd 1080p latino.
Comentarios 0