×

¿Problemas para descargar con Mozilla, EDGE? Deshabilita la opción "Abrir vinculos en una pestaña nueva" tal como lo muestra ésta imagen.

Anatomy of a Murder (1959) REMUX 4K HDR Latino – CMHDD

141 vistas

Información de Anatomy of a Murder (1959) REMUX 4K HDR Latino – CMHDD

Datos de la película

  • Calidad: 4K HDR
  • Audio: Español Latino AC3 2.0 BLURAY - Ingles DTS 5.1 BLURAY
  • Subtitulos: Español Latino PGS
  • Resolución: 3840x2160p
  • Formato: MKV
  • Codec: H.264
  • Encoder: Dracarys
  • Mediainfo: Clic para Mostrar Datos Ver
  • Format                      : Matroska
    Format version              : Version 4
    File size                   : 65.5 GiB
    Duration                    : 2 h 40 min
    Overall bit rate mode       : Variable
    Overall bit rate            : 58.4 Mb/s
    Movie name                  : Anatomy of a Murder (1959) REMUX 4K HDR Latino - CMHDD
    Encoded date                : UTC 2021-09-26 23:19:17
    Writing application         : mkvmerge v17.0.0 ('Be Ur Friend') 64-bit
    Writing library             : libebml v1.3.5 + libmatroska v1.4.8

    Video
    ID                          : 1
    Format                      : HEVC
    Format/Info                 : High Efficiency Video Coding
    Format profile              : Main 10@L5.1@High
    HDR format                  : SMPTE ST 2086, HDR10 compatible
    Codec ID                    : V_MPEGH/ISO/HEVC
    Duration                    : 2 h 40 min
    Bit rate                    : 51.0 Mb/s
    Width                       : 3 840 pixels
    Height                      : 2 160 pixels
    Display aspect ratio        : 16:9
    Frame rate mode             : Constant
    Frame rate                  : 23.976 (24000/1001) FPS
    Color space                 : YUV
    Chroma subsampling          : 4:2:0 (Type 2)
    Bit depth                   : 10 bits
    Bits/(Pixel*Frame)          : 0.256
    Stream size                 : 57.2 GiB (87%)
    Default                     : Yes
    Forced                      : No
    Color range                 : Limited
    Color primaries             : BT.2020
    Transfer characteristics    : PQ
    Matrix coefficients         : BT.2020 non-constant
    Mastering display color pri : Display P3
    Mastering display luminance : min: 0.0050 cd/m2, max: 4000 cd/m2
    Maximum Content Light Level : 3815 cd/m2
    Maximum Frame-Average Light : 30 cd/m2

    Audio #1
    ID                          : 2
    Format                      : MLP FBA 16-ch
    Format/Info                 : Meridian Lossless Packing FBA with 16-channel presentation
    Commercial name             : Dolby TrueHD with Dolby Atmos
    Codec ID                    : A_TRUEHD
    Duration                    : 2 h 40 min
    Bit rate mode               : Variable
    Bit rate                    : 3 427 kb/s
    Maximum bit rate            : 6 426 kb/s
    Channel(s)                  : 8 channels
    Channel layout              : L R C LFE Ls Rs Lb Rb
    Sampling rate               : 48.0 kHz
    Frame rate                  : 1 200.000 FPS (40 SPF)
    Compression mode            : Lossless
    Stream size                 : 3.84 GiB (6%)
    Language                    : English
    Default                     : No
    Forced                      : No
    Number of dynamic objects   : 11
    Bed channel count           : 1 channel
    Bed channel configuration   : LFE

    Audio #2
    ID                          : 3
    Format                      : AC-3
    Format/Info                 : Audio Coding 3
    Commercial name             : Dolby Digital
    Codec ID                    : A_AC3
    Duration                    : 2 h 40 min
    Bit rate mode               : Constant
    Bit rate                    : 640 kb/s
    Channel(s)                  : 6 channels
    Channel layout              : L R C LFE Ls Rs
    Sampling rate               : 48.0 kHz
    Frame rate                  : 31.250 FPS (1536 SPF)
    Compression mode            : Lossy
    Stream size                 : 735 MiB (1%)
    Language                    : English
    Service kind                : Complete Main
    Default                     : No
    Forced                      : No

    Audio #3
    ID                          : 4
    Format                      : DTS XLL
    Format/Info                 : Digital Theater Systems
    Commercial name             : DTS-HD Master Audio
    Codec ID                    : A_DTS
    Duration                    : 2 h 40 min
    Bit rate mode               : Variable
    Bit rate                    : 3 110 kb/s
    Channel(s)                  : 6 channels
    Channel layout              : C L R Ls Rs LFE
    Sampling rate               : 48.0 kHz
    Frame rate                  : 93.750 FPS (512 SPF)
    Bit depth                   : 24 bits
    Compression mode            : Lossless
    Stream size                 : 3.49 GiB (5%)
    Language                    : English
    Default                     : No
    Forced                      : No

    Audio #4
    ID                          : 5
    Format                      : AC-3
    Format/Info                 : Audio Coding 3
    Commercial name             : Dolby Digital
    Codec ID                    : A_AC3
    Duration                    : 2 h 40 min
    Bit rate mode               : Constant
    Bit rate                    : 192 kb/s
    Channel(s)                  : 2 channels
    Channel layout              : L R
    Sampling rate               : 48.0 kHz
    Frame rate                  : 31.250 FPS (1536 SPF)
    Compression mode            : Lossy
    Delay relative to video     : 24 ms
    Stream size                 : 221 MiB (0%)
    Language                    : Spanish
    Service kind                : Complete Main
    Default                     : Yes
    Forced                      : No

    Text
    ID                          : 6
    Format                      : PGS
    Muxing mode                 : zlib
    Codec ID                    : S_HDMV/PGS
    Codec ID/Info               : Picture based subtitle format used on BDs/HD-DVDs
    Duration                    : 2 h 40 min
    Bit rate                    : 53.0 kb/s
    Count of elements           : 5172
    Stream size                 : 60.7 MiB (0%)
    Language                    : Spanish
    Default                     : No
    Forced                      : No

    Menu
    00:00:00.000                : en:Chapter 1
    00:08:28.257                : en:Chapter 2
    00:14:55.811                : en:Chapter 3
    00:23:56.143                : en:Chapter 4
    00:38:19.547                : en:Chapter 5
    00:47:07.741                : en:Chapter 6
    00:57:56.473                : en:Chapter 7
    01:09:25.828                : en:Chapter 8
    01:16:24.663                : en:Chapter 9
    01:25:18.947                : en:Chapter 10
    01:39:08.400                : en:Chapter 11
    01:48:17.616                : en:Chapter 12
    01:59:22.905                : en:Chapter 13
    02:13:03.225                : en:Chapter 14
    02:21:44.287                : en:Chapter 15
    02:37:45.122                : en:Chapter 16

  • Peso: 65.5 GiB

Sinopsis

Frederick Manion (Ben Gazzara), un teniente del ejército, asesina fríamente al presunto violador de su mujer Laura (Lee Remick). Tras su detención, se celebra el juicio. Su mujer contrata como abogado defensor a Paul Biegler (James Stewart), un honrado hombre de leyes. Durante el juicio se reflejarán todo tipo de emociones y pasiones, desde los celos a la rabia. Uno de los dramas judiciales más famosos de la historia del cine.

Ficha técnica

Video trailer de la película

Enlaces de descarga

Rip de Bluray

Descargar Anatomy of a Murder (1959) REMUX 4K HDR Latino – CMHDD


Aportes de DPeliculasHDmega la pass es:dpeliculashdmega.org Aportes de CinemaniaHD la pass es:cinemaniahdd.com
Guardado en : Crimen , Drama , Misterio , Suspenso

Películas relacionadas

  • Paradise Highway (2022) HD 1080p Latino

    Paradise Highway (2022) HD 1080p Latino

    2022
    Paradise Highway (2022) HD 1080p Latino

    1h 55m 2022

    Descargar Paradise Highway (2022) HD 1080p Latino. Un camionero se ha visto obligado a pasar de contrabando...

    Director: Anna Gutto

    Género: Crimen

    Actores: Xavier Scott Evans

  • Paradise Highway (2022) PLACEBO Full HD 1080p Latino

    Paradise Highway (2022) PLACEBO Full HD 1080p Latino

    2022
    Paradise Highway (2022) PLACEBO Full HD 1080p Latino

    1h 55m 2022

    Descargar Paradise Highway (2022) PLACEBO Full HD 1080p Latino. Un camionero se ha visto obligado a pasar...

    Director: Anna Gutto

    Género: Crimen

    Actores: Xavier Scott Evans

  • Paradise Highway (2022) REMUX 1080p Latino

    Paradise Highway (2022) REMUX 1080p Latino

    2022
    Paradise Highway (2022) REMUX 1080p Latino

    1h 55m 2022

    Descargar Paradise Highway (2022) REMUX 1080p Latino. Un camionero se ha visto obligado a pasar de contrabando...

    Director: Anna Gutto

    Género: Crimen

    Actores: Xavier Scott Evans

descargar Anatomy of a Murder (1959) REMUX 4K HDR Latino – CMHDD 4K HDR 1080p gratis, Anatomy of a Murder (1959) REMUX 4K HDR Latino – CMHDD 4K HDR mega 1 link, Anatomy of a Murder (1959) REMUX 4K HDR Latino – CMHDD 4K HDR pelicula completa, descargar Anatomy of a Murder (1959) REMUX 4K HDR Latino – CMHDD 4K HDR gratis en mega.

Anatomy of a Murder (1959) REMUX 4K HDR Latino – CMHDD pelicula full hd, Anatomy of a Murder (1959) REMUX 4K HDR Latino – CMHDD mega latino, Anatomy of a Murder (1959) REMUX 4K HDR Latino – CMHDD 4k latino, Anatomy of a Murder (1959) REMUX 4K HDR Latino – CMHDD pelicula completa, Anatomy of a Murder (1959) REMUX 4K HDR Latino – CMHDD descargar gratis, descargar Anatomy of a Murder (1959) REMUX 4K HDR Latino – CMHDD pelicula latino, Anatomy of a Murder (1959) REMUX 4K HDR Latino – CMHDD 1 link mega, Anatomy of a Murder (1959) REMUX 4K HDR Latino – CMHDD 1 link google drive, Anatomy of a Murder (1959) REMUX 4K HDR Latino – CMHDD hd 1080p latino.