×

¿Problemas para descargar con Mozilla, EDGE? Deshabilita la opción "Abrir vinculos en una pestaña nueva" tal como lo muestra ésta imagen.

Anatomía de una Caída (2023) REMUX 1080p Latino

46 vistas

Información de Anatomía de una Caída (2023) REMUX 1080p Latino

Datos de la película

  • Calidad: Full 1080p
  • Audio: Se especifica abajo de la Sinopsis
  • Subtitulos: Español Latino SRT- FORZADOS SRT
  • Resolución: 1920x1080p
  • Formato: MKV
  • Codec: H.264
  • Encoder: Melkor
  • Mediainfo: Clic para Mostrar Datos Ver
  • Anatomia De Una Caida (2023) REMUX 1080p Latino.mkv
    Format                      : Matroska
    Format version              : Version 4
    File size                   : 28.1 GiB
    Duration                    : 2 h 31 min
    Overall bit rate mode       : Variable
    Overall bit rate            : 26.6 Mb/s
    Movie name                  : Anatomie d'une chute (2023) [Anatomy of a Fall] CinemaniaHDD.Net
    Encoded date                : UTC 2024-03-15 07:06:57
    Writing application         : mkvmerge v56.1.0 ('My Friend') 64-bit
    Writing library             : libebml v1.4.2 + libmatroska v1.6.4
    Cover                       : Yes
    Attachments                 : cover.jpg / CINEMANIAHD.png
    Site                        : CinemaniaHDD.Net
    Uploader                    : Melkor

    Video
    ID                          : 1
    ID in the original source m : 4113 (0x1011)
    Format                      : AVC
    Format/Info                 : Advanced Video Codec
    Format profile              : High@L4.1
    Format settings             : CABAC / 4 Ref Frames
    Format settings, CABAC      : Yes
    Format settings, Reference  : 4 frames
    Codec ID                    : V_MPEG4/ISO/AVC
    Duration                    : 2 h 31 min
    Bit rate mode               : Variable
    Bit rate                    : 23.0 Mb/s
    Maximum bit rate            : 35.0 Mb/s
    Width                       : 1 920 pixels
    Height                      : 1 080 pixels
    Display aspect ratio        : 16:9
    Frame rate mode             : Constant
    Frame rate                  : 24.000 FPS
    Color space                 : YUV
    Chroma subsampling          : 4:2:0
    Bit depth                   : 8 bits
    Scan type                   : Progressive
    Bits/(Pixel*Frame)          : 0.462
    Stream size                 : 24.3 GiB (86%)
    Title                       : REMUX HD1080p [CinemaniaHDD]
    Writing library             : x264 core 164 r3102 416e3eb
    Encoding settings           : cabac=1 / ref=4 / deblock=1:0:0 / analyse=0x3:0x113 / me=hex / subme=8 / psy=1 / psy_rd=1.00:0.00 / mixed_ref=1 / me_range=16 / chroma_me=1 / trellis=2 / 8x8dct=1 / cqm=0 / deadzone=21,11 / fast_pskip=1 / chroma_qp_offset=-2 / threads=30 / lookahead_threads=5 / sliced_threads=0 / slices=4 / nr=0 / decimate=1 / interlaced=0 / bluray_compat=1 / constrained_intra=0 / bframes=3 / b_pyramid=0 / b_adapt=1 / b_bias=0 / direct=3 / weightb=1 / open_gop=1 / weightp=1 / keyint=24 / keyint_min=1 / scenecut=40 / intra_refresh=0 / rc_lookahead=24 / rc=2pass / mbtree=1 / bitrate=23000 / ratetol=1.0 / qcomp=0.60 / qpmin=0 / qpmax=69 / qpstep=4 / cplxblur=20.0 / qblur=0.5 / vbv_maxrate=35000 / vbv_bufsize=30000 / nal_hrd=vbr / filler=0 / ip_ratio=1.40 / aq=1:1.00
    Default                     : Yes
    Forced                      : Yes
    Color range                 : Limited
    Color primaries             : BT.709
    Transfer characteristics    : BT.709
    Matrix coefficients         : BT.709
    Original source medium      : Blu-ray

    Audio #1
    ID                          : 2
    Format                      : AC-3
    Format/Info                 : Audio Coding 3
    Commercial name             : Dolby Digital
    Codec ID                    : A_AC3
    Duration                    : 2 h 31 min
    Bit rate mode               : Constant
    Bit rate                    : 384 kb/s
    Channel(s)                  : 6 channels
    Channel layout              : L R C LFE Ls Rs
    Sampling rate               : 48.0 kHz
    Frame rate                  : 31.250 FPS (1536 SPF)
    Compression mode            : Lossy
    Stream size                 : 415 MiB (1%)
    Title                       : Español Latino [CinemaniaHDD]
    Language                    : Spanish
    Service kind                : Complete Main
    Default                     : Yes
    Forced                      : Yes

    Audio #2
    ID                          : 3
    ID in the original source m : 4353 (0x1101)
    Format                      : DTS XLL
    Format/Info                 : Digital Theater Systems
    Commercial name             : DTS-HD Master Audio
    Codec ID                    : A_DTS
    Duration                    : 2 h 31 min
    Bit rate mode               : Variable
    Bit rate                    : 3 221 kb/s
    Channel(s)                  : 6 channels
    Channel layout              : C L R Ls Rs LFE
    Sampling rate               : 48.0 kHz
    Frame rate                  : 93.750 FPS (512 SPF)
    Bit depth                   : 24 bits
    Compression mode            : Lossless
    Stream size                 : 3.40 GiB (12%)
    Title                       : Frances [CinemaniaHDD]
    Language                    : French
    Default                     : No
    Forced                      : No
    Original source medium      : Blu-ray

    Text #1
    ID                          : 4
    Format                      : UTF-8
    Codec ID                    : S_TEXT/UTF8
    Codec ID/Info               : UTF-8 Plain Text
    Duration                    : 1 h 44 min
    Bit rate                    : 1 b/s
    Count of elements           : 23
    Stream size                 : 899 Bytes (0%)
    Title                       : Forzados-SRT [CinemaniaHDD]
    Language                    : Spanish
    Default                     : Yes
    Forced                      : Yes

    Text #2
    ID                          : 5
    Format                      : UTF-8
    Codec ID                    : S_TEXT/UTF8
    Codec ID/Info               : UTF-8 Plain Text
    Duration                    : 2 h 23 min
    Bit rate                    : 72 b/s
    Count of elements           : 2035
    Stream size                 : 76.3 KiB (0%)
    Title                       : Español-SRT [CinemaniaHDD]
    Language                    : Spanish
    Default                     : No
    Forced                      : No

    Text #3
    ID                          : 6
    Format                      : UTF-8
    Codec ID                    : S_TEXT/UTF8
    Codec ID/Info               : UTF-8 Plain Text
    Duration                    : 2 h 23 min
    Bit rate                    : 66 b/s
    Count of elements           : 2142
    Stream size                 : 69.4 KiB (0%)
    Title                       : Ingles [CinemaniaHDD]
    Language                    : English
    Default                     : No
    Forced                      : No

    Menu
    00:00:00.000                : Chapter 01
    00:10:59.583                : Chapter 02
    00:26:51.333                : Chapter 03
    00:37:33.583                : Chapter 04
    00:51:47.000                : Chapter 05
    01:09:48.291                : Chapter 06
    01:21:12.750                : Chapter 07
    01:37:37.833                : Chapter 08
    01:58:52.000                : Chapter 09
    02:06:07.875                : Chapter 10
    02:15:55.958                : Chapter 11
    02:22:51.291                : Chapter 12

  • Peso: 28.1 GiB

Sinopsis

Descargar Anatomía de una Caída (2023) REMUX 1080p Latino. Sandra, una escritora alemana, vive con su marido Samuel y su hijo ciego, Daniel, en un chalé en medio de los Alpes franceses. Cuando Samuel fallece en misteriosas circunstancias, la investigación no puede determinar si se trata de un suicidio o de un homicidio. Sandra es arrestada y juzgada por asesinato, y el proceso pone su tumultuosa relación y su ambigua personalidad en el punto de mira

Español Latino AC3 5.1 Web – Frances DTS-HD 5.1 BD

Ficha técnica

Video trailer de la película

Enlaces de descarga

Rip de Bluray

Descargar Anatomía de una Caída (2023) REMUX 1080p Latino




Aportes de DPeliculasHDmega la pass es:dpeliculashdmega.org Aportes de CinemaniaHD la pass es:cinemaniahdd.com Aportes recientes:cinemaniahdd.net
Guardado en : Crimen , Misterio , Remux , Suspenso

Películas relacionadas

descargar Anatomía de una Caída (2023) REMUX 1080p Latino Full 1080p 1080p gratis, Anatomía de una Caída (2023) REMUX 1080p Latino Full 1080p mega 1 link, Anatomía de una Caída (2023) REMUX 1080p Latino Full 1080p pelicula completa, descargar Anatomía de una Caída (2023) REMUX 1080p Latino Full 1080p gratis en mega.

Anatomía de una Caída (2023) REMUX 1080p Latino pelicula full hd, Anatomía de una Caída (2023) REMUX 1080p Latino mega latino, Anatomía de una Caída (2023) REMUX 1080p Latino 4k latino, Anatomía de una Caída (2023) REMUX 1080p Latino pelicula completa, Anatomía de una Caída (2023) REMUX 1080p Latino descargar gratis, descargar Anatomía de una Caída (2023) REMUX 1080p Latino pelicula latino, Anatomía de una Caída (2023) REMUX 1080p Latino 1 link mega, Anatomía de una Caída (2023) REMUX 1080p Latino 1 link google drive, Anatomía de una Caída (2023) REMUX 1080p Latino hd 1080p latino.
Comentarios 0