×

¿Problemas para descargar con Mozilla, EDGE? Deshabilita la opción "Abrir vinculos en una pestaña nueva" tal como lo muestra ésta imagen.

Anastasia (1997) Full HD 1080p Latino

335 vistas

Información de Anastasia (1997) Full HD 1080p Latino

Datos de la película

  • Calidad: Full 1080p
  • Audio: Español Latino AC3 5.1 BLURAY - Ingles DTS 5.1 BLURAY
  • Subtitulos: Español Latino PGS - Ingles PGS
  • Resolución: 1920x1080p
  • Formato: MKV
  • Codec: H.264
  • Encoder: CinefiloCool
  • Mediainfo: Clic para Mostrar Datos Ver
  • Anastasia (1997) Full HD 1080p Latino-CMHDD.mkv
    Format                      : Matroska
    Format version              : Version 4
    File size                   : 4.59 GiB
    Duration                    : 1 h 34 min
    Overall bit rate            : 6 976 kb/s
    Movie name                  : Anastasia (1997) CinemaniaHDD.Net
    Encoded date                : UTC 2021-03-07 22:12:00
    Writing application         : mkvmerge v51.0.0 ('I Wish') 64-bit
    Writing library             : libebml v1.4.0 + libmatroska v1.6.2
    Attachments                 : CINEMANIAHD.png

    Video
    ID                          : 1
    Format                      : AVC
    Format/Info                 : Advanced Video Codec
    Format profile              : High@L4.1
    Format settings             : CABAC / 4 Ref Frames
    Format settings, CABAC      : Yes
    Format settings, Reference  : 4 frames
    Codec ID                    : V_MPEG4/ISO/AVC
    Duration                    : 1 h 34 min
    Bit rate                    : 4 988 kb/s
    Width                       : 1 920 pixels
    Height                      : 1 080 pixels
    Display aspect ratio        : 16:9
    Frame rate mode             : Constant
    Frame rate                  : 23.976 (24000/1001) FPS
    Color space                 : YUV
    Chroma subsampling          : 4:2:0
    Bit depth                   : 8 bits
    Scan type                   : Progressive
    Bits/(Pixel*Frame)          : 0.100
    Stream size                 : 3.28 GiB (72%)
    Title                       : Full HD1080p [CinemaniaHDD]
    Writing library             : x264 core 157 r2935 545de2f
    Encoding settings           : cabac=1 / ref=4 / deblock=1:0:0 / analyse=0x3:0x133 / me=tesa / subme=11 / psy=1 / psy_rd=1.00:0.00 / mixed_ref=1 / me_range=24 / chroma_me=1 / trellis=2 / 8x8dct=1 / cqm=0 / deadzone=21,11 / fast_pskip=0 / chroma_qp_offset=-2 / threads=24 / lookahead_threads=6 / sliced_threads=0 / nr=0 / decimate=1 / interlaced=0 / bluray_compat=0 / constrained_intra=0 / bframes=16 / b_pyramid=2 / b_adapt=2 / b_bias=0 / direct=3 / weightb=1 / open_gop=0 / weightp=2 / keyint=240 / keyint_min=24 / scenecut=40 / intra_refresh=0 / rc_lookahead=60 / rc=crf / mbtree=1 / crf=19.0 / qcomp=0.60 / qpmin=0 / qpmax=69 / qpstep=4 / vbv_maxrate=62500 / vbv_bufsize=78125 / crf_max=0.0 / nal_hrd=none / filler=0 / ip_ratio=1.40 / aq=1:1.00
    Default                     : Yes
    Forced                      : Yes
    Color range                 : Limited
    Color primaries             : BT.709
    Transfer characteristics    : BT.709
    Matrix coefficients         : BT.709

    Audio #1
    ID                          : 2
    Format                      : AC-3
    Format/Info                 : Audio Coding 3
    Commercial name             : Dolby Digital
    Codec ID                    : A_AC3
    Duration                    : 1 h 34 min
    Bit rate mode               : Constant
    Bit rate                    : 448 kb/s
    Channel(s)                  : 6 channels
    Channel layout              : L R C LFE Ls Rs
    Sampling rate               : 48.0 kHz
    Frame rate                  : 31.250 FPS (1536 SPF)
    Compression mode            : Lossy
    Stream size                 : 302 MiB (6%)
    Title                       : Español Latino [CinemaniaHDD]
    Language                    : Spanish
    Service kind                : Complete Main
    Default                     : Yes
    Forced                      : Yes

    Audio #2
    ID                          : 3
    Format                      : DTS
    Format/Info                 : Digital Theater Systems
    Codec ID                    : A_DTS
    Duration                    : 1 h 34 min
    Bit rate mode               : Constant
    Bit rate                    : 1 509 kb/s
    Channel(s)                  : 6 channels
    Channel layout              : C L R Ls Rs LFE
    Sampling rate               : 48.0 kHz
    Frame rate                  : 93.750 FPS (512 SPF)
    Bit depth                   : 24 bits
    Compression mode            : Lossy
    Stream size                 : 1 016 MiB (22%)
    Title                       : Ingles [CinemaniaHDD]
    Language                    : English
    Default                     : No
    Forced                      : No

    Text #1
    ID                          : 4
    Format                      : PGS
    Muxing mode                 : zlib
    Codec ID                    : S_HDMV/PGS
    Codec ID/Info               : Picture based subtitle format used on BDs/HD-DVDs
    Duration                    : 1 h 33 min
    Bit rate                    : 30.9 kb/s
    Count of elements           : 2190
    Stream size                 : 20.6 MiB (0%)
    Title                       : Español-PGS [CinemaniaHDD]
    Language                    : Spanish
    Default                     : No
    Forced                      : No

    Text #2
    ID                          : 5
    Format                      : PGS
    Muxing mode                 : zlib
    Codec ID                    : S_HDMV/PGS
    Codec ID/Info               : Picture based subtitle format used on BDs/HD-DVDs
    Duration                    : 1 h 33 min
    Bit rate                    : 31.2 kb/s
    Count of elements           : 2169
    Stream size                 : 20.8 MiB (0%)
    Title                       : Ingles-PGS [CinemaniaHDD]
    Language                    : Spanish
    Default                     : No
    Forced                      : No

    Text #3
    ID                          : 6
    Format                      : UTF-8
    Codec ID                    : S_TEXT/UTF8
    Codec ID/Info               : UTF-8 Plain Text
    Duration                    : 1 h 26 min
    Bit rate                    : 0 b/s
    Count of elements           : 12
    Stream size                 : 277 Bytes (0%)
    Title                       : Forzados-SRT [CinemaniaHDD]
    Language                    : Spanish
    Default                     : Yes
    Forced                      : Yes

    Text #4
    ID                          : 7
    Format                      : UTF-8
    Codec ID                    : S_TEXT/UTF8
    Codec ID/Info               : UTF-8 Plain Text
    Duration                    : 1 h 33 min
    Bit rate                    : 60 b/s
    Count of elements           : 1095
    Stream size                 : 41.1 KiB (0%)
    Title                       : Español-SRT [CinemaniaHDD]
    Language                    : Spanish
    Default                     : No
    Forced                      : No

    Menu
    00:00:00.000                : en:Imperial Russia
    00:02:23.268                : en:Once upon a December ( Prologue )
    00:03:02.807                : en:Rasputin
    00:06:41.025                : en:Main Title: A Rumor in St. Petersburg
    00:10:10.484                : en:Fork in the Road
    00:12:40.050                : en:Journey to the past
    00:15:57.790                : en:Dimitri and Vladimir's Plan
    00:16:45.754                : en:The old Place
    00:18:07.169                : en:Once upon a december
    00:20:44.660                : en:Dimitri and Anya
    00:25:41.873                : en:Bartok
    00:27:06.041                : en:The return of Rasputin
    00:29:10.457                : en:In the dark of the night
    00:31:26.217                : en:Bound for Paris
    00:35:13.611                : en:Runaway Train
    00:38:08.369                : en:Jump to safety
    00:40:12.201                : en:The long walk
    00:42:38.347                : en:Learn to do it
    00:45:14.044                : en:The Boat to paris
    00:46:20.778                : en:Learn to do it ( Waltz reprise )
    00:49:32.302                : en:Dangerous sleep
    00:52:52.586                : en:Rasputin Loses His Head
    00:54:08.662                : en:Sophie and the Dowager Empress Marie
    00:58:29.631                : en:Paris Holds the Key (To Your Heart)
    01:01:50.790                : en:The Ballet
    01:04:59.020                : en:Dimitri and the Empress
    01:08:53.796                : en:Anastasia
    01:11:09.848                : en:Once Upon a December (Reunion)
    01:12:00.482                : en:Royal Party Plans
    01:13:05.381                : en:Memories
    01:14:20.789                : en:A Change of Heart
    01:17:04.578                : en:Anastasia's Destiny
    01:19:25.051                : en:Rasputin Appears
    01:22:17.682                : en:Long Live the Romanovs
    01:25:10.522                : en:A Perfect Beginning
    01:26:52.415                : en:End Credits
    01:34:10.394                : en:Chapter 37

  • Peso: 4.59 GiB

Sinopsis

Descargar Anastasia (1997) Full HD 1080p Latino. Cuando la sombra de la revolución se cierne sobre Rusia, Anastasia, la hija más joven de la familia real, apenas consigue escapar con vida. Años despúes conoce al joven Dimitri. Cuando se dirigen a París para reclamar los derechos del legado de Anastasia, se verán envueltos en una cruenta lucha contra el malvado monje Rasputín y su sicario, el murciélago Bartok.

Ficha técnica

Video trailer de la película

Enlaces de descarga

Rip de Bluray

Descargar Anastasia (1997) Full HD 1080p Latino




Aportes de DPeliculasHDmega la pass es:dpeliculashdmega.org Aportes de CinemaniaHD la pass es:cinemaniahdd.com

Películas relacionadas

descargar Anastasia (1997) Full HD 1080p Latino Full 1080p 1080p gratis, Anastasia (1997) Full HD 1080p Latino Full 1080p mega 1 link, Anastasia (1997) Full HD 1080p Latino Full 1080p pelicula completa, descargar Anastasia (1997) Full HD 1080p Latino Full 1080p gratis en mega.

Anastasia (1997) Full HD 1080p Latino pelicula full hd, Anastasia (1997) Full HD 1080p Latino mega latino, Anastasia (1997) Full HD 1080p Latino 4k latino, Anastasia (1997) Full HD 1080p Latino pelicula completa, Anastasia (1997) Full HD 1080p Latino descargar gratis, descargar Anastasia (1997) Full HD 1080p Latino pelicula latino, Anastasia (1997) Full HD 1080p Latino 1 link mega, Anastasia (1997) Full HD 1080p Latino 1 link google drive, Anastasia (1997) Full HD 1080p Latino hd 1080p latino.
Comentarios 0