×

¿Problemas para descargar con Mozilla, EDGE? Deshabilita la opción "Abrir vinculos en una pestaña nueva" tal como lo muestra ésta imagen.

An Affair to Die For (2019) WEB-DL 1080p Latino – CMHDD

197 vistas

Información de An Affair to Die For (2019) WEB-DL 1080p Latino – CMHDD

Datos de la película

  • Calidad: WEBDL
  • Audio: Español Latino AC3 5.1 WEB-DL - Ingles AC3 5.1 WEB-DL
  • Subtitulos: Español Latino SRT
  • Resolución: 1920x800p
  • Formato: MKV
  • Codec: H.264
  • Encoder: CinemaniaHDD
  • Mediainfo: Clic para Mostrar Datos Ver
  • Format                      : Matroska
    Format version              : Version 4
    File size                   : 3.11 GiB
    Duration                    : 1 h 23 min
    Overall bit rate            : 5 369 kb/s
    Movie name                  : An Affair to Die For (2019) WEB-DL 1080p Latino - CMHDD
    Encoded date                : UTC 2021-05-13 01:14:46
    Writing application         : mkvmerge v56.1.0 ('My Friend') 64-bit
    Writing library             : libebml v1.4.2 + libmatroska v1.6.4

    Video
    ID                          : 1
    Format                      : AVC
    Format/Info                 : Advanced Video Codec
    Format profile              : High@L4
    Format settings             : CABAC / 5 Ref Frames
    Format settings, CABAC      : Yes
    Format settings, Reference  : 5 frames
    Codec ID                    : V_MPEG4/ISO/AVC
    Duration                    : 1 h 23 min
    Bit rate                    : 4 599 kb/s
    Width                       : 1 920 pixels
    Height                      : 800 pixels
    Display aspect ratio        : 2.40:1
    Frame rate mode             : Constant
    Frame rate                  : 23.976 (24000/1001) FPS
    Color space                 : YUV
    Chroma subsampling          : 4:2:0
    Bit depth                   : 8 bits
    Scan type                   : Progressive
    Bits/(Pixel*Frame)          : 0.125
    Stream size                 : 2.67 GiB (86%)
    Language                    : English
    Default                     : Yes
    Forced                      : No
    Color range                 : Limited
    Color primaries             : BT.709
    Transfer characteristics    : BT.709
    Matrix coefficients         : BT.709

    Audio #1
    ID                          : 2
    Format                      : AC-3
    Format/Info                 : Audio Coding 3
    Commercial name             : Dolby Digital
    Codec ID                    : A_AC3
    Duration                    : 1 h 23 min
    Bit rate mode               : Constant
    Bit rate                    : 384 kb/s
    Channel(s)                  : 6 channels
    Channel layout              : L R C LFE Ls Rs
    Sampling rate               : 48.0 kHz
    Frame rate                  : 31.250 FPS (1536 SPF)
    Compression mode            : Lossy
    Delay relative to video     : -42 ms
    Stream size                 : 228 MiB (7%)
    Language                    : Spanish
    Service kind                : Complete Main
    Default                     : Yes
    Forced                      : No

    Audio #2
    ID                          : 3
    Format                      : AC-3
    Format/Info                 : Audio Coding 3
    Commercial name             : Dolby Digital
    Codec ID                    : A_AC3
    Duration                    : 1 h 23 min
    Bit rate mode               : Constant
    Bit rate                    : 384 kb/s
    Channel(s)                  : 6 channels
    Channel layout              : L R C LFE Ls Rs
    Sampling rate               : 48.0 kHz
    Frame rate                  : 31.250 FPS (1536 SPF)
    Compression mode            : Lossy
    Delay relative to video     : -42 ms
    Stream size                 : 228 MiB (7%)
    Language                    : English
    Service kind                : Complete Main
    Default                     : No
    Forced                      : No

    Text
    ID                          : 4
    Format                      : UTF-8
    Codec ID                    : S_TEXT/UTF8
    Codec ID/Info               : UTF-8 Plain Text
    Duration                    : 1 h 19 min
    Bit rate                    : 44 b/s
    Count of elements           : 868
    Stream size                 : 26.0 KiB (0%)
    Default                     : No
    Forced                      : No

    Menu
    00:00:00.000                : 1
    00:08:49.070                : 2
    00:19:11.441                : 3
    00:33:14.157                : 4
    00:46:27.074                : 5
    00:58:56.697                : 6
    01:10:32.141                : 7
    01:19:07.906                : 8

  • Peso: 3.11 GiB

Sinopsis

La Doctora Holly Pierpont miente a su marido Russell sobre una relación que mantiene con un joven llamado Everett. Ella le dice que está en una conferencia en Santa Barbara, pero en realidad se dirige a un resort en Palm Springs. Allí espera a la llegada de Everett cuando descubre una venda y unas esposas en la habitación. Se las pone y es asaltada sexualmente. Ella cree que es Everett, pero en realidad es su marido Russell, que la ha seguido. Algo que usará en su favor para vengarse de los amantes.

Ficha técnica

  • Titulo original: An Affair to Die For
  • Fecha de lanzamiento: 01-02-2019 (Italy, Spain)
  • Director: Víctor García
  • Género: Suspenso

Video trailer de la película

Enlaces de descarga

Rip de Bluray

Descargar An Affair to Die For (2019) WEB-DL 1080p Latino – CMHDD




Aportes de DPeliculasHDmega la pass es:dpeliculashdmega.org Aportes de CinemaniaHD la pass es:cinemaniahdd.com
Guardado en : Suspenso

Películas relacionadas

  • La Máquina infernal (2022) WEB-DL 1080p Latino

    La Máquina infernal (2022) WEB-DL 1080p Latino

    2022
    La Máquina infernal (2022) WEB-DL 1080p Latino

    1h 47m 2022

    Descargar La Máquina infernal (2022) WEB-DL 1080p Latino. Un fan obsesivo saca de su escondite al solitario...

    Director: Andrew Hunt

    Género: Suspenso

    Actores: Rocco Salata

  • Borrego: Sal Del Camino (2022) HD 1080p Latino

    Borrego: Sal Del Camino (2022) HD 1080p Latino

    2022
    Borrego: Sal Del Camino (2022) HD 1080p Latino

    1h 42m 2022

    Descargar Borrego: Sal Del Camino (2022) HD 1080p Latino. Una joven botánica se traslada a un pequeño...

    Director: Jesse Harris

    Género: Crimen

    Actores: Olivia Trujillo

  • Borrego: Sal Del Camino (2022) REMUX 1080p Latino

    Borrego: Sal Del Camino (2022) REMUX 1080p Latino

    2022
    Borrego: Sal Del Camino (2022) REMUX 1080p Latino

    1h 42m 2022

    Descargar Borrego: Sal Del Camino (2022) REMUX 1080p Latino. Una joven botánica se traslada a un pequeño...

    Director: Jesse Harris

    Género: Crimen

    Actores: Olivia Trujillo

  • Tren Bala (2022) WEB-DL 4K UHD HDR Latino

    Tren Bala (2022) WEB-DL 4K UHD HDR Latino

    2022
    Tren Bala (2022) WEB-DL 4K UHD HDR Latino

    2h 7m 2022

    Descargar Tren Bala (2022) WEB-DL 4K UHD HDR Latino. El desafortunado asesino "Catarina" está decidido...

    Director: Paul Barry

    Género: 4K HDR

    Actores: Zooey Miyoshi

descargar An Affair to Die For (2019) WEB-DL 1080p Latino – CMHDD WEBDL 1080p gratis, An Affair to Die For (2019) WEB-DL 1080p Latino – CMHDD WEBDL mega 1 link, An Affair to Die For (2019) WEB-DL 1080p Latino – CMHDD WEBDL pelicula completa, descargar An Affair to Die For (2019) WEB-DL 1080p Latino – CMHDD WEBDL gratis en mega.

An Affair to Die For (2019) WEB-DL 1080p Latino – CMHDD pelicula full hd, An Affair to Die For (2019) WEB-DL 1080p Latino – CMHDD mega latino, An Affair to Die For (2019) WEB-DL 1080p Latino – CMHDD 4k latino, An Affair to Die For (2019) WEB-DL 1080p Latino – CMHDD pelicula completa, An Affair to Die For (2019) WEB-DL 1080p Latino – CMHDD descargar gratis, descargar An Affair to Die For (2019) WEB-DL 1080p Latino – CMHDD pelicula latino, An Affair to Die For (2019) WEB-DL 1080p Latino – CMHDD 1 link mega, An Affair to Die For (2019) WEB-DL 1080p Latino – CMHDD 1 link google drive, An Affair to Die For (2019) WEB-DL 1080p Latino – CMHDD hd 1080p latino.
Comentarios 0