×

¿Problemas para descargar con Mozilla, EDGE? Deshabilita la opción "Abrir vinculos en una pestaña nueva" tal como lo muestra ésta imagen.

Amsterdam (2022) 4K-HDR WEB-DL 2160p Latino

30 vistas

Información de Amsterdam (2022) 4K-HDR WEB-DL 2160p Latino

Datos de la película

  • Calidad: 4K HDR
  • Audio: Español Latino AC3 5.1 WEB-DL - Ingles AC3 5.1 WEB-DL
  • Subtitulos: Español Latino SRT- FORZADOS SRT
  • Resolución: 3840x1608
  • Formato: MKV
  • Codec: H.264
  • Encoder: cinemaniahdd
  • Mediainfo: Clic para Mostrar Datos Ver
  • Amsterdam (2022) 4K-HDR WEB-DL 2160p Latino.mkv
    Format                      : Matroska
    Format version              : Version 4
    File size                   : 24.2 GiB
    Duration                    : 2 h 14 min
    Overall bit rate            : 25.8 Mb/s
    Movie name                  : Amsterdam (2022) [2160p] - CinemaniaHDD.Net
    Encoded date                : UTC 2022-11-12 01:31:48
    Writing application         : mkvmerge v56.1.0 ('My Friend') 64-bit
    Writing library             : libebml v1.4.2 + libmatroska v1.6.4

    Video
    ID                          : 1
    Format                      : HEVC
    Format/Info                 : High Efficiency Video Coding
    Format profile              : Main 10@L5@High
    HDR format                  : SMPTE ST 2094 App 4, Version 1, HDR10+ Profile B compatible
    Codec ID                    : V_MPEGH/ISO/HEVC
    Duration                    : 2 h 14 min
    Bit rate                    : 24.6 Mb/s
    Width                       : 3 840 pixels
    Height                      : 1 608 pixels
    Display aspect ratio        : 2.40:1
    Frame rate mode             : Constant
    Frame rate                  : 23.976 (24000/1001) FPS
    Color space                 : YUV
    Chroma subsampling          : 4:2:0 (Type 2)
    Bit depth                   : 10 bits
    Bits/(Pixel*Frame)          : 0.166
    Stream size                 : 23.1 GiB (96%)
    Title                       : CinemaniaHDD
    Default                     : No
    Forced                      : No
    Color range                 : Limited
    Color primaries             : BT.2020
    Transfer characteristics    : PQ
    Matrix coefficients         : BT.2020 non-constant
    Mastering display color pri : BT.2020
    Mastering display luminance : min: 0.0050 cd/m2, max: 1000 cd/m2
    Maximum Content Light Level : 243 cd/m2
    Maximum Frame-Average Light : 103 cd/m2

    Audio #1
    ID                          : 2
    Format                      : AC-3
    Format/Info                 : Audio Coding 3
    Commercial name             : Dolby Digital
    Codec ID                    : A_AC3
    Duration                    : 2 h 14 min
    Bit rate mode               : Constant
    Bit rate                    : 384 kb/s
    Channel(s)                  : 6 channels
    Channel layout              : L R C LFE Ls Rs
    Sampling rate               : 48.0 kHz
    Frame rate                  : 31.250 FPS (1536 SPF)
    Compression mode            : Lossy
    Stream size                 : 369 MiB (1%)
    Title                       : Español latino [CinemaniaHDD]
    Language                    : Spanish
    Service kind                : Complete Main
    Default                     : Yes
    Forced                      : No

    Audio #2
    ID                          : 3
    Format                      : E-AC-3 JOC
    Format/Info                 : Enhanced AC-3 with Joint Object Coding
    Commercial name             : Dolby Digital Plus with Dolby Atmos
    Codec ID                    : A_EAC3
    Duration                    : 2 h 14 min
    Bit rate mode               : Constant
    Bit rate                    : 768 kb/s
    Channel(s)                  : 6 channels
    Channel layout              : L R C LFE Ls Rs
    Sampling rate               : 48.0 kHz
    Frame rate                  : 31.250 FPS (1536 SPF)
    Compression mode            : Lossy
    Stream size                 : 737 MiB (3%)
    Title                       : Inglés [CinemaniaHDD]
    Language                    : English
    Service kind                : Complete Main
    Default                     : No
    Forced                      : No
    Complexity index            : 16
    Number of dynamic objects   : 15
    Bed channel count           : 1 channel
    Bed channel configuration   : LFE

    Text #1
    ID                          : 4
    Format                      : UTF-8
    Codec ID                    : S_TEXT/UTF8
    Codec ID/Info               : UTF-8 Plain Text
    Duration                    : 2 h 6 min
    Bit rate                    : 1 b/s
    Count of elements           : 61
    Stream size                 : 1.77 KiB (0%)
    Title                       : Forzados [CinemaniaHDD]
    Language                    : Spanish
    Default                     : Yes
    Forced                      : Yes

    Text #2
    ID                          : 5
    Format                      : UTF-8
    Codec ID                    : S_TEXT/UTF8
    Codec ID/Info               : UTF-8 Plain Text
    Duration                    : 2 h 8 min
    Bit rate                    : 96 b/s
    Count of elements           : 2452
    Stream size                 : 90.9 KiB (0%)
    Title                       : Español latino [CinemaniaHDD]
    Language                    : Spanish
    Default                     : No
    Forced                      : No

    Text #3
    ID                          : 6
    Format                      : UTF-8
    Codec ID                    : S_TEXT/UTF8
    Codec ID/Info               : UTF-8 Plain Text
    Duration                    : 2 h 6 min
    Bit rate                    : 101 b/s
    Count of elements           : 2925
    Stream size                 : 94.1 KiB (0%)
    Title                       : Inglés [CinemaniaHDD]
    Language                    : English
    Default                     : No
    Forced                      : No

    Menu
    00:00:00.000                : Chapter 1
    00:07:10.000                : Chapter 2
    00:15:38.000                : Chapter 3
    00:26:46.000                : Chapter 4
    00:33:22.000                : Chapter 5
    00:45:19.000                : Chapter 6
    00:50:58.000                : Chapter 7
    01:02:26.000                : Chapter 8
    01:12:40.000                : Chapter 9
    01:20:57.000                : Chapter 10
    01:25:32.000                : Chapter 11
    01:32:46.000                : Chapter 12
    01:35:32.000                : Chapter 13
    01:39:19.000                : Chapter 14
    01:42:45.000                : Chapter 15
    01:49:23.000                : Chapter 16
    01:55:52.000                : Chapter 17
    02:07:00.000                : Chapter 18

     

  • Peso: 24.2 GiB

Sinopsis

Epopeya romántica sobre tres amigos que se ven envueltos en una de las tramas secretas más impactantes de la historia de Estados Unidos. Basada en hechos que se mezclan con ficción.

Ficha técnica

Video trailer de la película

Enlaces de descarga

Rip de Bluray

Descargar Amsterdam (2022) 4K-HDR WEB-DL 2160p Latino




Aportes de DPeliculasHDmega la pass es:dpeliculashdmega.org Aportes de CinemaniaHD la pass es:cinemaniahdd.com
Guardado en : 4K HDR , 4K UHD , Comedia , Crimen , Drama , Misterio , Suspenso

Películas relacionadas

descargar Amsterdam (2022) 4K-HDR WEB-DL 2160p Latino 4K HDR 1080p gratis, Amsterdam (2022) 4K-HDR WEB-DL 2160p Latino 4K HDR mega 1 link, Amsterdam (2022) 4K-HDR WEB-DL 2160p Latino 4K HDR pelicula completa, descargar Amsterdam (2022) 4K-HDR WEB-DL 2160p Latino 4K HDR gratis en mega.

Amsterdam (2022) 4K-HDR WEB-DL 2160p Latino pelicula full hd, Amsterdam (2022) 4K-HDR WEB-DL 2160p Latino mega latino, Amsterdam (2022) 4K-HDR WEB-DL 2160p Latino 4k latino, Amsterdam (2022) 4K-HDR WEB-DL 2160p Latino pelicula completa, Amsterdam (2022) 4K-HDR WEB-DL 2160p Latino descargar gratis, descargar Amsterdam (2022) 4K-HDR WEB-DL 2160p Latino pelicula latino, Amsterdam (2022) 4K-HDR WEB-DL 2160p Latino 1 link mega, Amsterdam (2022) 4K-HDR WEB-DL 2160p Latino 1 link google drive, Amsterdam (2022) 4K-HDR WEB-DL 2160p Latino hd 1080p latino.
Comentarios 0