×

¿Problemas para descargar con Mozilla, EDGE? Deshabilita la opción "Abrir vinculos en una pestaña nueva" tal como lo muestra ésta imagen.

Amores Perros (2000) «Criterion Collection» REMUX 1080p Latino

237 vistas

Información de Amores Perros (2000) «Criterion Collection» REMUX 1080p Latino

Datos de la película

  • Calidad: Full 1080p
  • Audio: Se especifica abajo de la Sinopsis
  • Subtitulos: No
  • Resolución: 1920x1080p
  • Formato: MKV
  • Codec: H.264
  • Encoder: CinefiloCool
  • Mediainfo: Clic para Mostrar Datos Ver
  • Amores Perros CC (2000) REMUX 1080p Latino-CMHDD.mkv
    Format                      : Matroska
    Format version              : Version 4
    File size                   : 31.9 GiB
    Duration                    : 2 h 34 min
    Overall bit rate mode       : Variable
    Overall bit rate            : 29.6 Mb/s
    Movie name                  : Amores Perros (2000) CinemaniaHDD.Net
    Encoded date                : UTC 2022-01-04 09:04:57
    Writing application         : mkvmerge v56.1.0 ('My Friend') 64-bit
    Writing library             : libebml v1.4.2 + libmatroska v1.6.4
    Attachments                 : CINEMANIAHD.png

    Video
    ID                          : 1
    ID in the original source m : 4113 (0x1011)
    Format                      : AVC
    Format/Info                 : Advanced Video Codec
    Format profile              : High@L4.1
    Format settings             : CABAC / 4 Ref Frames
    Format settings, CABAC      : Yes
    Format settings, Reference  : 4 frames
    Format settings, GOP        : M=3, N=12
    Codec ID                    : V_MPEG4/ISO/AVC
    Duration                    : 2 h 34 min
    Bit rate mode               : Variable
    Bit rate                    : 24.2 Mb/s
    Maximum bit rate            : 37.0 Mb/s
    Width                       : 1 920 pixels
    Height                      : 1 080 pixels
    Display aspect ratio        : 16:9
    Frame rate mode             : Constant
    Frame rate                  : 23.976 (24000/1001) FPS
    Color space                 : YUV
    Chroma subsampling          : 4:2:0
    Bit depth                   : 8 bits
    Scan type                   : Progressive
    Bits/(Pixel*Frame)          : 0.487
    Stream size                 : 26.1 GiB (82%)
    Title                       : REMUX HD1080p [CinemaniaHDD]
    Default                     : Yes
    Forced                      : Yes
    Original source medium      : Blu-ray

    Audio #1
    ID                          : 2
    ID in the original source m : 4352 (0x1100)
    Format                      : DTS XLL
    Format/Info                 : Digital Theater Systems
    Commercial name             : DTS-HD Master Audio
    Codec ID                    : A_DTS
    Duration                    : 2 h 34 min
    Bit rate mode               : Variable
    Bit rate                    : 3 840 kb/s
    Channel(s)                  : 6 channels
    Channel layout              : C L R Ls Rs LFE
    Sampling rate               : 48.0 kHz
    Frame rate                  : 93.750 FPS (512 SPF)
    Bit depth                   : 24 bits
    Compression mode            : Lossless
    Stream size                 : 4.14 GiB (13%)
    Title                       : Español Latino [CinemaniaHDD]
    Language                    : Spanish
    Default                     : Yes
    Forced                      : Yes
    Original source medium      : Blu-ray

    Audio #2
    ID                          : 3
    Format                      : DTS
    Format/Info                 : Digital Theater Systems
    Codec ID                    : A_DTS
    Duration                    : 2 h 34 min
    Bit rate mode               : Constant
    Bit rate                    : 1 509 kb/s
    Channel(s)                  : 6 channels
    Channel layout              : C L R Ls Rs LFE
    Sampling rate               : 48.0 kHz
    Frame rate                  : 93.750 FPS (512 SPF)
    Bit depth                   : 24 bits
    Compression mode            : Lossy
    Stream size                 : 1.63 GiB (5%)
    Title                       : Español Latino DTS [CinemaniaHDD]
    Language                    : Spanish
    Default                     : No
    Forced                      : No

    Text
    ID                          : 4
    ID in the original source m : 4608 (0x1200)
    Format                      : PGS
    Muxing mode                 : zlib
    Codec ID                    : S_HDMV/PGS
    Codec ID/Info               : Picture based subtitle format used on BDs/HD-DVDs
    Duration                    : 2 h 28 min
    Bit rate                    : 26.7 kb/s
    Count of elements           : 2653
    Stream size                 : 28.3 MiB (0%)
    Title                       : Ingles-PGS [CinemaniaHDD]
    Language                    : English
    Default                     : No
    Forced                      : No
    Original source medium      : Blu-ray

    Menu
    00:00:00.000                : Chapter 01
    00:10:45.186                : Chapter 02
    00:16:48.424                : Chapter 03
    00:26:58.116                : Chapter 04
    00:40:09.990                : Chapter 05
    00:50:11.425                : Chapter 06
    00:57:59.517                : Chapter 07
    01:03:26.135                : Chapter 08
    01:10:43.072                : Chapter 09
    01:22:55.011                : Chapter 10
    01:34:27.620                : Chapter 11
    01:44:51.785                : Chapter 12
    01:50:58.943                : Chapter 13
    02:00:25.593                : Chapter 14
    02:12:33.612                : Chapter 15
    02:17:56.268                : Chapter 16
    02:29:39.929                : Chapter 17

  • Peso: 31.9 GiB

Sinopsis

Descargar Amores Perros (2000) «Criterion Collection» REMUX 1080p Latino. Ciudad de México: un fatal accidente automovilístico afecta trágicamente a tres personas. Octavio, un joven adolescente, decide fugarse con Susana, la esposa de su hermano; el Cofí, su perro, se convierte en el medio para conseguir el dinero que necesitan para poder escapar juntos. Al mismo tiempo, Daniel, un hombre de 42 años, deja a su esposa y a sus hijos para irse a vivir con Valeria, una hermosa modelo. El mismo día en que ambos festejan su nueva vida, el destino hace que Valeria sea víctima del trágico accidente.

Audio Español Latino DTS-HD + Core DTS 5.1 Bluray
Disponible Solo Para VIP!!!

Ficha técnica

Video trailer de la película

Enlaces de descarga

Rip de Bluray

Descargar Amores Perros (2000) «Criterion Collection» REMUX 1080p Latino


Aportes de DPeliculasHDmega la pass es:dpeliculashdmega.org Aportes de CinemaniaHD la pass es:cinemaniahdd.com
Guardado en : Drama , Remux , Suspenso

Películas relacionadas

  • Togo (2022) NF WEB-DL 1080p Latino

    Togo (2022) NF WEB-DL 1080p Latino

    2022
    Togo (2022) NF WEB-DL 1080p Latino

    1h 35m 2022

    Descargar Togo (2022) NF WEB-DL 1080p Latino. Los narcos de poca monta están copando las calles de Montevideo...

    Director: Adrián Caetano

    Género: Crimen

    Actores: Tito Prieto

  • El Ultimo Juego (2021) WEB-DL 1080p Latino

    El Ultimo Juego (2021) WEB-DL 1080p Latino

    2021
    El Ultimo Juego (2021) WEB-DL 1080p Latino

    1h 21m 2021

    Descargar El Ultimo Juego (2021) WEB-DL 1080p Latino. 6 extraños se despiertan dentro de una habitación...

    Director: John David Moffat IV

    Género: Drama

    Actores: Yasmin Irvine

  • Invitacion Al Infierno (2022) MA WEB-DL 1080p Latino

    Invitacion Al Infierno (2022) MA WEB-DL 1080p Latino

    2022
    Invitacion Al Infierno (2022) MA WEB-DL 1080p Latino

    1h 45m 2022

    Descargar Invitacion Al Infierno (2022) MA WEB-DL 1080p Latino. Tras la muerte de su madre y quedarse...

    Director: Jessica M. Thompson

    Género: Suspenso

    Actores: Virág Bárány

descargar Amores Perros (2000) «Criterion Collection» REMUX 1080p Latino Full 1080p 1080p gratis, Amores Perros (2000) «Criterion Collection» REMUX 1080p Latino Full 1080p mega 1 link, Amores Perros (2000) «Criterion Collection» REMUX 1080p Latino Full 1080p pelicula completa, descargar Amores Perros (2000) «Criterion Collection» REMUX 1080p Latino Full 1080p gratis en mega.

Amores Perros (2000) «Criterion Collection» REMUX 1080p Latino pelicula full hd, Amores Perros (2000) «Criterion Collection» REMUX 1080p Latino mega latino, Amores Perros (2000) «Criterion Collection» REMUX 1080p Latino 4k latino, Amores Perros (2000) «Criterion Collection» REMUX 1080p Latino pelicula completa, Amores Perros (2000) «Criterion Collection» REMUX 1080p Latino descargar gratis, descargar Amores Perros (2000) «Criterion Collection» REMUX 1080p Latino pelicula latino, Amores Perros (2000) «Criterion Collection» REMUX 1080p Latino 1 link mega, Amores Perros (2000) «Criterion Collection» REMUX 1080p Latino 1 link google drive, Amores Perros (2000) «Criterion Collection» REMUX 1080p Latino hd 1080p latino.
Comentarios 0