×

¿Problemas para descargar con Mozilla, EDGE? Deshabilita la opción "Abrir vinculos en una pestaña nueva" tal como lo muestra ésta imagen.

Amores perros (2000) 1080p Latino

48 vistas

Información de Amores perros (2000) 1080p Latino

Datos de la película

  • Calidad: 1080p
  • Audio: Español Latino AC3 5.1 BLURAY
  • Subtitulos: No
  • Resolución: 1920x1036p
  • Formato: MKV
  • Codec: H.264
  • Encoder: CinefiloCool
  • Mediainfo: Clic para Mostrar Datos Ver
  • Amores Perros (2000) 1080p Latino-CMHDD.mkv
    Format                      : Matroska
    Format version              : Version 4
    File size                   : 5.00 GiB
    Duration                    : 2 h 34 min
    Overall bit rate            : 4 639 kb/s
    Movie name                  : Amores Perros (2000) CinemaniaHDD.Net
    Encoded date                : UTC 2022-12-30 04:55:49
    Writing application         : mkvmerge v56.1.0 ('My Friend') 64-bit
    Writing library             : libebml v1.4.2 + libmatroska v1.6.4
    Attachments                 : CINEMANIAHD.png

    Video
    ID                          : 1
    Format                      : AVC
    Format/Info                 : Advanced Video Codec
    Format profile              : High@L4.1
    Format settings             : CABAC / 4 Ref Frames
    Format settings, CABAC      : Yes
    Format settings, Reference  : 4 frames
    Codec ID                    : V_MPEG4/ISO/AVC
    Duration                    : 2 h 34 min
    Bit rate                    : 4 000 kb/s
    Width                       : 1 920 pixels
    Height                      : 1 036 pixels
    Display aspect ratio        : 1.85:1
    Frame rate mode             : Constant
    Frame rate                  : 23.976 (24000/1001) FPS
    Color space                 : YUV
    Chroma subsampling          : 4:2:0
    Bit depth                   : 8 bits
    Scan type                   : Progressive
    Bits/(Pixel*Frame)          : 0.084
    Stream size                 : 4.31 GiB (86%)
    Title                       : HD1080p [CinemaniaHDD]
    Writing library             : x264 core 163 r3059 b684ebe0
    Encoding settings           : cabac=1 / ref=4 / deblock=1:-2:-2 / analyse=0x3:0x133 / me=umh / subme=9 / psy=1 / psy_rd=1.00:0.25 / mixed_ref=1 / me_range=16 / chroma_me=1 / trellis=2 / 8x8dct=1 / cqm=0 / deadzone=6,6 / fast_pskip=1 / chroma_qp_offset=-4 / threads=24 / lookahead_threads=2 / sliced_threads=0 / nr=0 / decimate=0 / interlaced=0 / bluray_compat=0 / constrained_intra=0 / bframes=3 / b_pyramid=2 / b_adapt=2 / b_bias=0 / direct=3 / weightb=1 / open_gop=0 / weightp=2 / keyint=240 / keyint_min=24 / scenecut=40 / intra_refresh=0 / rc_lookahead=60 / rc=2pass / mbtree=1 / bitrate=4000 / ratetol=1.0 / qcomp=0.80 / qpmin=0 / qpmax=69 / qpstep=4 / cplxblur=20.0 / qblur=0.5 / vbv_maxrate=62500 / vbv_bufsize=78125 / nal_hrd=none / filler=0 / ip_ratio=1.10 / aq=1:0.50
    Default                     : Yes
    Forced                      : Yes
    Color range                 : Limited
    Color primaries             : BT.709
    Transfer characteristics    : BT.709
    Matrix coefficients         : BT.709

    Audio
    ID                          : 2
    Format                      : AC-3
    Format/Info                 : Audio Coding 3
    Commercial name             : Dolby Digital
    Codec ID                    : A_AC3
    Duration                    : 2 h 34 min
    Bit rate mode               : Constant
    Bit rate                    : 640 kb/s
    Channel(s)                  : 6 channels
    Channel layout              : L R C LFE Ls Rs
    Sampling rate               : 48.0 kHz
    Frame rate                  : 31.250 FPS (1536 SPF)
    Compression mode            : Lossy
    Delay relative to video     : -5 ms
    Stream size                 : 707 MiB (14%)
    Title                       : Español Latino [CinemaniaHDD]
    Language                    : Spanish
    Service kind                : Complete Main
    Default                     : Yes
    Forced                      : Yes

    Menu
    00:00:00.000                : :Chapter 1
    00:10:45.311                : :Chapter 2
    00:16:48.508                : :Chapter 3
    00:26:58.117                : :Chapter 4
    00:40:10.033                : :Chapter 5
    00:50:11.509                : :Chapter 6
    00:57:59.601                : :Chapter 7
    01:03:26.136                : :Chapter 8
    01:10:43.197                : :Chapter 9
    01:22:55.095                : :Chapter 10
    01:34:27.704                : :Chapter 11
    01:44:51.786                : :Chapter 12
    01:50:58.944                : :Chapter 13
    02:00:25.677                : :Chapter 14
    02:12:33.696                : :Chapter 15
    02:17:56.268                : :Chapter 16
    02:29:39.971                : :Chapter 17

  • Peso: 5.00 GiB

Sinopsis

Descargar Amores perros (2000) 1080p Latino. Ciudad de México: un fatal accidente automovilístico afecta trágicamente a tres personas. Octavio, un joven adolescente, decide fugarse con Susana, la esposa de su hermano; el Cofí, su perro, se convierte en el medio para conseguir el dinero que necesitan para poder escapar juntos. Al mismo tiempo, Daniel, un hombre de 42 años, deja a su esposa y a sus hijos para irse a vivir con Valeria, una hermosa modelo. El mismo día en que ambos festejan su nueva vida, el destino hace que Valeria sea víctima del trágico accidente.

Ficha técnica

Video trailer de la película

Enlaces de descarga

Rip de Bluray

Descargar Amores perros (2000) 1080p Latino




Aportes de DPeliculasHDmega la pass es:dpeliculashdmega.org Aportes de CinemaniaHD la pass es:cinemaniahdd.com
Guardado en : Drama , HD 1080p , Suspenso

Películas relacionadas

  • El discurso del Rey (2010) 1080p Latino

    El discurso del Rey (2010) 1080p Latino

    2010
    El discurso del Rey (2010) 1080p Latino

    1h 58m 2010

    Descargar El discurso del Rey (2010) 1080p Latino. El duque de York se convirtió en rey de Gran Bretaña...

    Director: Tom Hooper

    Género: Drama

    Actores: Tony Earnshaw

  • El discurso del Rey (2010) Full HD 1080p Latino

    El discurso del Rey (2010) Full HD 1080p Latino

    2010
    El discurso del Rey (2010) Full HD 1080p Latino

    1h 58m 2010

    Descargar El discurso del Rey (2010) Full HD 1080p Latino. El duque de York se convirtió en rey de Gran...

    Director: Tom Hooper

    Género: Drama

    Actores: Tony Earnshaw

  • El discurso del Rey (2010) REMUX 1080p Latino

    El discurso del Rey (2010) REMUX 1080p Latino

    2010
    El discurso del Rey (2010) REMUX 1080p Latino

    1h 58m 2010

    Descargar El discurso del Rey (2010) REMUX 1080p Latino. El duque de York se convirtió en rey de Gran...

    Director: Tom Hooper

    Género: Drama

    Actores: Tony Earnshaw

  • 8 Mile (2002) REMUX 4K HDR Latino – CMHDD

    8 Mile (2002) REMUX 4K HDR Latino – CMHDD

    2002
    8 Mile (2002) REMUX 4K HDR Latino – CMHDD

    1h 50m 2002

    Detroit, 1995. La promesa de potencia industrial se ha transformado en un hervidero de conflictos económicos...

    Director: Michael J. Moore

    Género: Drama

    Actores: Xzibit

descargar Amores perros (2000) 1080p Latino 1080p 1080p gratis, Amores perros (2000) 1080p Latino 1080p mega 1 link, Amores perros (2000) 1080p Latino 1080p pelicula completa, descargar Amores perros (2000) 1080p Latino 1080p gratis en mega.

Amores perros (2000) 1080p Latino pelicula full hd, Amores perros (2000) 1080p Latino mega latino, Amores perros (2000) 1080p Latino 4k latino, Amores perros (2000) 1080p Latino pelicula completa, Amores perros (2000) 1080p Latino descargar gratis, descargar Amores perros (2000) 1080p Latino pelicula latino, Amores perros (2000) 1080p Latino 1 link mega, Amores perros (2000) 1080p Latino 1 link google drive, Amores perros (2000) 1080p Latino hd 1080p latino.
Comentarios 0