De Amor y Monstruos (2020) PLACEBO Full HD 1080p Latino

182 vistas
1 estrella2 estrellas3 estrellas4 estrellas5 estrellas (Ninguna valoración todavía)
Cargando...

Información de De Amor y Monstruos (2020) PLACEBO Full HD 1080p Latino

Datos de la película

  • Calidad: Full 1080p
  • Audio: Se especifica abajo de la Sinopsis
  • Subtitulos: Español Latino PGS - Ingles PGS
  • Resolución: 1920x1080p
  • Formato: MKV
  • Codec: H.264
  • Encoder: Melkor
  • Mediainfo: Clic para Mostrar Datos Ver
  • Amor Y Monstruos (2020) PLACEBO 1080p Latino.mkv
    Format                      : Matroska
    Format version              : Version 4
    File size                   : 6.32 GiB
    Duration                    : 1 h 48 min
    Overall bit rate            : 8 315 kb/s
    Movie name                  : Love and Monsters (2020) CinemaniaHDD.Net
    Encoded date                : UTC 2021-04-14 07:48:09
    Writing application         : mkvmerge v51.0.0 ('I Wish') 64-bit
    Writing library             : libebml v1.4.0 + libmatroska v1.6.2
    Attachments                 : CINEMANIAHD.png

    Video
    ID                          : 1
    Format                      : AVC
    Format/Info                 : Advanced Video Codec
    Format profile              : High@L4.1
    Format settings             : CABAC / 4 Ref Frames
    Format settings, CABAC      : Yes
    Format settings, Reference  : 4 frames
    Codec ID                    : V_MPEG4/ISO/AVC
    Duration                    : 1 h 48 min
    Bit rate                    : 5 483 kb/s
    Width                       : 1 920 pixels
    Height                      : 1 080 pixels
    Display aspect ratio        : 16:9
    Frame rate mode             : Constant
    Frame rate                  : 23.976 (24000/1001) FPS
    Color space                 : YUV
    Chroma subsampling          : 4:2:0
    Bit depth                   : 8 bits
    Scan type                   : Progressive
    Bits/(Pixel*Frame)          : 0.110
    Stream size                 : 4.17 GiB (66%)
    Title                       : Full HD1080p [CinemaniaHDD]
    Writing library             : x264 core 157 r2935 545de2f
    Encoding settings           : cabac=1 / ref=4 / deblock=1:0:0 / analyse=0x3:0x133 / me=tesa / subme=11 / psy=1 / psy_rd=1.00:0.00 / mixed_ref=1 / me_range=24 / chroma_me=1 / trellis=2 / 8x8dct=1 / cqm=0 / deadzone=21,11 / fast_pskip=0 / chroma_qp_offset=-2 / threads=24 / lookahead_threads=6 / sliced_threads=0 / nr=0 / decimate=1 / interlaced=0 / bluray_compat=0 / constrained_intra=0 / bframes=16 / b_pyramid=2 / b_adapt=2 / b_bias=0 / direct=3 / weightb=1 / open_gop=0 / weightp=2 / keyint=240 / keyint_min=24 / scenecut=40 / intra_refresh=0 / rc_lookahead=60 / rc=crf / mbtree=1 / crf=19.0 / qcomp=0.60 / qpmin=0 / qpmax=69 / qpstep=4 / vbv_maxrate=62500 / vbv_bufsize=78125 / crf_max=0.0 / nal_hrd=none / filler=0 / ip_ratio=1.40 / aq=1:1.00
    Default                     : Yes
    Forced                      : Yes
    Color range                 : Limited
    Color primaries             : BT.709
    Transfer characteristics    : BT.709
    Matrix coefficients         : BT.709

    Audio #1
    ID                          : 2
    Format                      : E-AC-3
    Format/Info                 : Enhanced AC-3
    Commercial name             : Dolby Digital Plus
    Codec ID                    : A_EAC3
    Duration                    : 1 h 48 min
    Bit rate mode               : Constant
    Bit rate                    : 640 kb/s
    Channel(s)                  : 6 channels
    Channel layout              : L R C LFE Ls Rs
    Sampling rate               : 48.0 kHz
    Frame rate                  : 31.250 FPS (1536 SPF)
    Compression mode            : Lossy
    Delay relative to video     : 28 ms
    Stream size                 : 498 MiB (8%)
    Title                       : Español Latino EAC3 [CinemaniaHDD]
    Language                    : Spanish
    Service kind                : Complete Main
    Default                     : No
    Forced                      : No

    Audio #2
    ID                          : 3
    Format                      : DTS
    Format/Info                 : Digital Theater Systems
    Codec ID                    : A_DTS
    Duration                    : 1 h 48 min
    Bit rate mode               : Constant
    Bit rate                    : 1 509 kb/s
    Channel(s)                  : 6 channels
    Channel layout              : C L R Ls Rs LFE
    Sampling rate               : 48.0 kHz
    Frame rate                  : 93.750 FPS (512 SPF)
    Bit depth                   : 24 bits
    Compression mode            : Lossy
    Stream size                 : 1.15 GiB (18%)
    Title                       : Ingles [CinemaniaHDD]
    Language                    : English
    Default                     : No
    Forced                      : No

    Audio #3
    ID                          : 4
    Format                      : AC-3
    Format/Info                 : Audio Coding 3
    Commercial name             : Dolby Digital
    Codec ID                    : A_AC3
    Duration                    : 1 h 48 min
    Bit rate mode               : Constant
    Bit rate                    : 640 kb/s
    Channel(s)                  : 6 channels
    Channel layout              : L R C LFE Ls Rs
    Sampling rate               : 48.0 kHz
    Frame rate                  : 31.250 FPS (1536 SPF)
    Compression mode            : Lossy
    Stream size                 : 498 MiB (8%)
    Title                       : Español Latino AC3 [CinemaniaHDD]
    Language                    : Spanish
    Service kind                : Complete Main
    Default                     : Yes
    Forced                      : Yes

    Text #1
    ID                          : 5
    Format                      : PGS
    Muxing mode                 : zlib
    Codec ID                    : S_HDMV/PGS
    Codec ID/Info               : Picture based subtitle format used on BDs/HD-DVDs
    Duration                    : 1 h 47 min
    Bit rate                    : 38.5 kb/s
    Count of elements           : 2830
    Stream size                 : 29.7 MiB (0%)
    Title                       : Español-PGS [CinemaniaHDD]
    Language                    : Spanish
    Default                     : No
    Forced                      : No

    Text #2
    ID                          : 6
    Format                      : PGS
    Muxing mode                 : zlib
    Codec ID                    : S_HDMV/PGS
    Codec ID/Info               : Picture based subtitle format used on BDs/HD-DVDs
    Duration                    : 1 h 41 min
    Bit rate                    : 41.7 kb/s
    Count of elements           : 2812
    Stream size                 : 30.3 MiB (0%)
    Title                       : Ingles-PGS [CinemaniaHDD]
    Language                    : English
    Default                     : No
    Forced                      : No

    Text #3
    ID                          : 7
    Format                      : UTF-8
    Codec ID                    : S_TEXT/UTF8
    Codec ID/Info               : UTF-8 Plain Text
    Duration                    : 1 h 47 min
    Bit rate                    : 1 b/s
    Count of elements           : 30
    Stream size                 : 938 Bytes (0%)
    Title                       : Forzados-SRT [CinemaniaHDD]
    Language                    : Spanish
    Default                     : Yes
    Forced                      : Yes

    Text #4
    ID                          : 8
    Format                      : UTF-8
    Codec ID                    : S_TEXT/UTF8
    Codec ID/Info               : UTF-8 Plain Text
    Duration                    : 1 h 47 min
    Bit rate                    : 55 b/s
    Count of elements           : 1413
    Stream size                 : 44.1 KiB (0%)
    Title                       : Español-SRT [CinemaniaHDD]
    Language                    : Spanish
    Default                     : No
    Forced                      : No

    Menu
    00:00:00.000                : en:Chapter 01
    00:10:19.369                : en:Chapter 02
    00:20:14.505                : en:Chapter 03
    00:28:48.644                : en:Chapter 04
    00:34:54.968                : en:Chapter 05
    00:41:15.515                : en:Chapter 06
    00:50:20.976                : en:Chapter 07
    00:54:56.460                : en:Chapter 08
    01:04:05.717                : en:Chapter 09
    01:13:02.670                : en:Chapter 10
    01:20:52.473                : en:Chapter 11
    01:27:57.105                : en:Chapter 12
    01:36:45.466                : en:Chapter 13
    01:42:38.527                : en:Chapter 14

  • Peso: 6.32 GiB

Sinopsis

Descargar De Amor y Monstruos (2020) PLACEBO Full HD 1080p Latino. Un mundo posapocalíptico. Joel Dawson es un joven que deberá luchar contra monstruos, con tal de reunirse con Aimee, su amor del instituto. En el camino, tendrá que desafiar peligrosos animales mutantes y encontrará amistades inesperadas y también algunos enemigos.

Español Latino EAC3 & AC3 5.1 WebDL – Ingles DTS 5.1 Bluray

Ficha técnica

Video trailer de la película

Enlaces de descarga

Rip de Bluray

Descargar De Amor y Monstruos (2020) PLACEBO Full HD 1080p Latino




Aportes de DPeliculasHDmega la pass es:dpeliculashdmega.org Aportes de CinemaniaHD la pass es:cinemaniahdd.com

Películas relacionadas

  • Luca (2021) HD 1080p Latino

    Luca (2021) HD 1080p Latino

    2021
    Luca (2021) HD 1080p Latino

    0.0 1h 41m 2021

    Descargar Luca (2021) HD 1080p Latino. Ambientada en un precioso pueblo costero de la Riviera italiana,...

    Director: Rayna Helgens

    Género: Animación

    Actores: Saverio Raimondo

  • Luca (2021) REMUX 1080p Latino

    Luca (2021) REMUX 1080p Latino

    2021
    Luca (2021) REMUX 1080p Latino

    0.0 1h 41m 2021

    Descargar Luca (2021) REMUX 1080p Latino. Ambientada en un precioso pueblo costero de la Riviera italiana,...

    Director: Rayna Helgens

    Género: Animación

    Actores: Saverio Raimondo

  • Cosa De Hombres (2003) 1080p Latino

    Cosa De Hombres (2003) 1080p Latino

    2003
    Cosa De Hombres (2003) 1080p Latino

    0.0 1h 41m 2003

    Descargar Cosa De Hombres (2003) 1080p Latino. Paul -Jason Lee- está a punto de casarse con Karen -Selma...

    Director: Chris Koch

    Género: Comedia

    Actores: Zahf Paroo

  • Cosa De Hombres (2003) Full HD 1080p Latino

    Cosa De Hombres (2003) Full HD 1080p Latino

    2003
    Cosa De Hombres (2003) Full HD 1080p Latino

    0.0 1h 41m 2003

    Descargar Cosa De Hombres (2003) Full HD 1080p Latino. Paul -Jason Lee- está a punto de casarse con...

    Director: Chris Koch

    Género: Comedia

    Actores: Zahf Paroo

  • Cosa De Hombres (2003) REMUX 1080p Latino

    Cosa De Hombres (2003) REMUX 1080p Latino

    2003
    Cosa De Hombres (2003) REMUX 1080p Latino

    0.0 1h 41m 2003

    Descargar Cosa De Hombres (2003) REMUX 1080p Latino. Paul -Jason Lee- está a punto de casarse con Karen...

    Director: Chris Koch

    Género: Comedia

    Actores: Zahf Paroo

De Amor y Monstruos (2020) PLACEBO Full HD 1080p Latino pelicula full hd, De Amor y Monstruos (2020) PLACEBO Full HD 1080p Latino mega latino, De Amor y Monstruos (2020) PLACEBO Full HD 1080p Latino 4k latino, De Amor y Monstruos (2020) PLACEBO Full HD 1080p Latino pelicula completa, De Amor y Monstruos (2020) PLACEBO Full HD 1080p Latino descargar gratis, descargar De Amor y Monstruos (2020) PLACEBO Full HD 1080p Latino pelicula latino, De Amor y Monstruos (2020) PLACEBO Full HD 1080p Latino 1 link mega, De Amor y Monstruos (2020) PLACEBO Full HD 1080p Latino 1 link google drive, De Amor y Monstruos (2020) PLACEBO Full HD 1080p Latino hd 1080p latino.
Comentarios 1
  • ocpgaiden - 14 abril, 2021

    Gracias y saludos