De Amor y Monstruos (2020) 4K UHD HDR Latino

63 vistas
1 estrella2 estrellas3 estrellas4 estrellas5 estrellas (Ninguna valoración todavía)
Cargando...

Información de De Amor y Monstruos (2020) 4K UHD HDR Latino

Datos de la película

  • Calidad: 4K HDR
  • Audio: Se especifica abajo de la Sinopsis
  • Subtitulos: Español Latino PGS - Ingles PGS
  • Resolución: 3840x1604p
  • Formato: MKV
  • Codec: HEVC
  • Encoder: Melkor
  • Mediainfo: Clic para Mostrar Datos Ver
  • Amor Y Monstruos (2020) UHD HDR Latino.mkv
    Format                      : Matroska
    Format version              : Version 4
    File size                   : 20.2 GiB
    Duration                    : 1 h 48 min
    Overall bit rate            : 26.5 Mb/s
    Movie name                  : Love and Monsters (2020) CinemaniaHDD.Net
    Encoded date                : UTC 2021-04-14 08:40:00
    Writing application         : mkvmerge v51.0.0 ('I Wish') 64-bit
    Writing library             : libebml v1.4.0 + libmatroska v1.6.2
    Attachments                 : CINEMANIAHD.png

    Video
    ID                          : 1
    Format                      : HEVC
    Format/Info                 : High Efficiency Video Coding
    Format profile              : Main 10@L5.1@High
    HDR format                  : SMPTE ST 2086, HDR10 compatible
    Codec ID                    : V_MPEGH/ISO/HEVC
    Duration                    : 1 h 48 min
    Bit rate                    : 23.7 Mb/s
    Width                       : 3 840 pixels
    Height                      : 1 604 pixels
    Display aspect ratio        : 2.40:1
    Frame rate mode             : Constant
    Frame rate                  : 23.976 (24000/1001) FPS
    Color space                 : YUV
    Chroma subsampling          : 4:2:0 (Type 2)
    Bit depth                   : 10 bits
    Bits/(Pixel*Frame)          : 0.160
    Stream size                 : 18.0 GiB (89%)
    Title                       : 2160p HDR [Bluray]
    Writing library             : x265 3.4+26-ga82c6c7a7:[Windows][GCC 10.2.1][64 bit] 10bit
    Encoding settings           : cpuid=1176575 / frame-threads=5 / numa-pools=36 / wpp / no-pmode / no-pme / no-psnr / no-ssim / log-level=2 / input-csp=1 / input-res=3840x1604 / interlace=0 / total-frames=156607 / level-idc=51 / high-tier=1 / uhd-bd=0 / ref=4 / no-allow-non-conformance / repeat-headers / annexb / aud / hrd / info / hash=0 / no-temporal-layers / open-gop / min-keyint=23 / keyint=250 / gop-lookahead=0 / bframes=4 / b-adapt=2 / b-pyramid / bframe-bias=0 / rc-lookahead=25 / lookahead-slices=4 / scenecut=40 / hist-scenecut=0 / radl=0 / no-splice / no-intra-refresh / ctu=64 / min-cu-size=8 / rect / no-amp / max-tu-size=32 / tu-inter-depth=1 / tu-intra-depth=1 / limit-tu=0 / rdoq-level=2 / dynamic-rd=0.00 / no-ssim-rd / signhide / no-tskip / nr-intra=0 / nr-inter=0 / no-constrained-intra / strong-intra-smoothing / max-merge=3 / limit-refs=3 / limit-modes / me=3 / subme=3 / merange=57 / temporal-mvp / no-frame-dup / no-hme / weightp / no-weightb / no-analyze-src-pics / deblock=-3:-3 / no-sao / no-sao-non-deblock / rd=4 / selective-sao=0 / no-early-skip / rskip / no-fast-intra / no-tskip-fast / no-cu-lossless / no-b-intra / no-splitrd-skip / rdpenalty=0 / psy-rd=2.00 / psy-rdoq=1.00 / no-rd-refine / no-lossless / cbqpoffs=0 / crqpoffs=0 / rc=crf / crf=14.0 / qcomp=0.60 / qpstep=4 / stats-write=0 / stats-read=0 / vbv-maxrate=160000 / vbv-bufsize=160000 / vbv-init=0.9 / min-vbv-fullness=50.0 / max-vbv-fullness=80.0 / crf-max=0.0 / crf-min=0.0 / ipratio=1.40 / pbratio=1.30 / aq-mode=2 / aq-strength=1.00 / cutree / zone-count=0 / no-strict-cbr / qg-size=32 / no-rc-grain / qpmax=69 / qpmin=0 / no-const-vbv / sar=1 / overscan=0 / videoformat=5 / range=0 / colorprim=9 / transfer=16 / colormatrix=9 / chromaloc=1 / chromaloc-top=2 / chromaloc-bottom=2 / display-window=0 / master-display=G(13250,34500)B(7500,3000)R(34000,16000)WP(15635,16450)L(40000000,50) / cll=1000,520 / min-luma=0 / max-luma=1023 / log2-max-poc-lsb=8 / vui-timing-info / vui-hrd-info / slices=1 / no-opt-qp-pps / no-opt-ref-list-length-pps / no-multi-pass-opt-rps / scenecut-bias=0.05 / hist-threshold=0.03 / no-opt-cu-delta-qp / no-aq-motion / hdr10 / hdr10-opt / no-dhdr10-opt / no-idr-recovery-sei / analysis-reuse-level=0 / analysis-save-reuse-level=0 / analysis-load-reuse-level=0 / scale-factor=0 / refine-intra=0 / refine-inter=0 / refine-mv=1 / refine-ctu-distortion=0 / no-limit-sao / ctu-info=0 / no-lowpass-dct / refine-analysis-type=0 / copy-pic=1 / max-ausize-factor=1.0 / no-dynamic-refine / no-single-sei / no-hevc-aq / no-svt / no-field / qp-adaptation-range=1.00 / no-scenecut-aware-qpconformance-window-offsets / right=0 / bottom=0 / decoder-max-rate=0 / no-vbv-live-multi-pass
    Default                     : Yes
    Forced                      : No
    Color range                 : Limited
    Color primaries             : BT.2020
    Transfer characteristics    : PQ
    Matrix coefficients         : BT.2020 non-constant
    Mastering display color pri : Display P3
    Mastering display luminance : min: 0.0050 cd/m2, max: 4000 cd/m2
    Maximum Content Light Level : 1000 cd/m2
    Maximum Frame-Average Light : 520 cd/m2

    Audio #1
    ID                          : 2
    Format                      : E-AC-3
    Format/Info                 : Enhanced AC-3
    Commercial name             : Dolby Digital Plus
    Codec ID                    : A_EAC3
    Duration                    : 1 h 48 min
    Bit rate mode               : Constant
    Bit rate                    : 640 kb/s
    Channel(s)                  : 6 channels
    Channel layout              : L R C LFE Ls Rs
    Sampling rate               : 48.0 kHz
    Frame rate                  : 31.250 FPS (1536 SPF)
    Compression mode            : Lossy
    Delay relative to video     : 28 ms
    Stream size                 : 498 MiB (2%)
    Title                       : Español Latino [CinemaniaHDD]
    Language                    : Spanish
    Service kind                : Complete Main
    Default                     : Yes
    Forced                      : No

    Audio #2
    ID                          : 3
    Format                      : DTS
    Format/Info                 : Digital Theater Systems
    Codec ID                    : A_DTS
    Duration                    : 1 h 48 min
    Bit rate mode               : Constant
    Bit rate                    : 1 509 kb/s
    Channel(s)                  : 6 channels
    Channel layout              : C L R Ls Rs LFE
    Sampling rate               : 48.0 kHz
    Frame rate                  : 93.750 FPS (512 SPF)
    Bit depth                   : 24 bits
    Compression mode            : Lossy
    Stream size                 : 1.15 GiB (6%)
    Title                       : Ingles [CinemaniaHDD]
    Language                    : English
    Default                     : No
    Forced                      : No

    Audio #3
    ID                          : 4
    Format                      : AC-3
    Format/Info                 : Audio Coding 3
    Commercial name             : Dolby Digital
    Codec ID                    : A_AC3
    Duration                    : 1 h 48 min
    Bit rate mode               : Constant
    Bit rate                    : 640 kb/s
    Channel(s)                  : 6 channels
    Channel layout              : L R C LFE Ls Rs
    Sampling rate               : 48.0 kHz
    Frame rate                  : 31.250 FPS (1536 SPF)
    Compression mode            : Lossy
    Stream size                 : 498 MiB (2%)
    Title                       : Español Latino AC3 [CinemaniaHDD]
    Language                    : Spanish
    Service kind                : Complete Main
    Default                     : No
    Forced                      : Yes

    Text #1
    ID                          : 5
    Format                      : PGS
    Muxing mode                 : zlib
    Codec ID                    : S_HDMV/PGS
    Codec ID/Info               : Picture based subtitle format used on BDs/HD-DVDs
    Duration                    : 1 h 47 min
    Bit rate                    : 38.5 kb/s
    Count of elements           : 2830
    Stream size                 : 29.7 MiB (0%)
    Title                       : Sub_Esp [PGS]
    Language                    : Spanish
    Default                     : No
    Forced                      : No

    Text #2
    ID                          : 6
    Format                      : PGS
    Muxing mode                 : zlib
    Codec ID                    : S_HDMV/PGS
    Codec ID/Info               : Picture based subtitle format used on BDs/HD-DVDs
    Duration                    : 1 h 41 min
    Bit rate                    : 41.7 kb/s
    Count of elements           : 2812
    Stream size                 : 30.3 MiB (0%)
    Title                       : Sub_Eng [PGS]
    Language                    : English
    Default                     : No
    Forced                      : No

    Text #3
    ID                          : 7
    Format                      : UTF-8
    Codec ID                    : S_TEXT/UTF8
    Codec ID/Info               : UTF-8 Plain Text
    Duration                    : 1 h 47 min
    Bit rate                    : 1 b/s
    Count of elements           : 30
    Stream size                 : 938 Bytes (0%)
    Title                       : Sub_Forzados
    Language                    : Spanish
    Default                     : Yes
    Forced                      : Yes

    Text #4
    ID                          : 8
    Format                      : UTF-8
    Codec ID                    : S_TEXT/UTF8
    Codec ID/Info               : UTF-8 Plain Text
    Duration                    : 1 h 47 min
    Bit rate                    : 55 b/s
    Count of elements           : 1413
    Stream size                 : 44.1 KiB (0%)
    Title                       : Sub_Esp
    Language                    : Spanish
    Default                     : No
    Forced                      : No

    Menu
    00:00:00.000                : en:Chapter 01
    00:10:19.369                : en:Chapter 02
    00:20:14.505                : en:Chapter 03
    00:28:48.644                : en:Chapter 04
    00:34:54.968                : en:Chapter 05
    00:41:15.515                : en:Chapter 06
    00:50:20.976                : en:Chapter 07
    00:54:56.460                : en:Chapter 08
    01:04:05.717                : en:Chapter 09
    01:13:02.670                : en:Chapter 10
    01:20:52.473                : en:Chapter 11
    01:27:57.105                : en:Chapter 12
    01:36:45.466                : en:Chapter 13
    01:42:38.527                : en:Chapter 14

  • Peso: 20.2 GiB

Sinopsis

Descargar De Amor y Monstruos (2020) 4K UHD HDR Latino. Un mundo posapocalíptico. Joel Dawson es un joven que deberá luchar contra monstruos, con tal de reunirse con Aimee, su amor del instituto. En el camino, tendrá que desafiar peligrosos animales mutantes y encontrará amistades inesperadas y también algunos enemigos.

Español Latino EAC3 & AC3 5.1 WebDL – Ingles DTS 5.1 Bluray

Ficha técnica

Video trailer de la película

Enlaces de descarga

Rip de Bluray

Descargar De Amor y Monstruos (2020) 4K UHD HDR Latino




Aportes de DPeliculasHDmega la pass es:dpeliculashdmega.org Aportes de CinemaniaHD la pass es:cinemaniahdd.com

Películas relacionadas

  • Ferry (2021) NF WEB-DL 1080p Latino

    Ferry (2021) NF WEB-DL 1080p Latino

    2021
    Ferry (2021) NF WEB-DL 1080p Latino

    5.0 1h 46m 2021

    Antes de levantar su imperio de drogas, Ferry Bouman vuelve a casa con una misión de venganza que pone...

    Director: Cecilia Verheyden

    Género: Acción

    Actores: Yannick van de Velde

  • The Strange House (2021) NF WEB-DL 1080p Latino

    The Strange House (2021) NF WEB-DL 1080p Latino

    2020
    The Strange House (2021) NF WEB-DL 1080p Latino

    5.0 0h 0m 2020

    Cuando una familia se muda de la gran ciudad a un pueblo apartado, dos jóvenes hermanos y sus nuevos...

    Director: Daniel Prochaska

    Género: Aventura

    Actores: Michael Pink

  • Loco Y Estúpido Amor (2011) 1080p Latino

    Loco Y Estúpido Amor (2011) 1080p Latino

    2011
    Loco Y Estúpido Amor (2011) 1080p Latino

    0.0 1h 58m 2011

    Descargar Loco Y Estúpido Amor (2011) 1080p Latino. La situación del cuarentón y puritano Cal Weaver...

    Director: John Requa

    Género: Comedia

    Actores: Zayne Emory

De Amor y Monstruos (2020) 4K UHD HDR Latino pelicula full hd, De Amor y Monstruos (2020) 4K UHD HDR Latino mega latino, De Amor y Monstruos (2020) 4K UHD HDR Latino 4k latino, De Amor y Monstruos (2020) 4K UHD HDR Latino pelicula completa, De Amor y Monstruos (2020) 4K UHD HDR Latino descargar gratis, descargar De Amor y Monstruos (2020) 4K UHD HDR Latino pelicula latino, De Amor y Monstruos (2020) 4K UHD HDR Latino 1 link mega, De Amor y Monstruos (2020) 4K UHD HDR Latino 1 link google drive, De Amor y Monstruos (2020) 4K UHD HDR Latino hd 1080p latino.
Comentarios 0