×

¿Problemas para descargar con Mozilla, EDGE? Deshabilita la opción "Abrir vinculos en una pestaña nueva" tal como lo muestra ésta imagen.

Amor Sin Barreras (2021) PLACEBO Full HD 1080p Latino

743 vistas

Información de Amor Sin Barreras (2021) PLACEBO Full HD 1080p Latino

Datos de la película

  • Calidad: Full 1080p
  • Audio: Se especifica abajo de la Sinopsis
  • Subtitulos: Español Latino SRT- FORZADOS SRT
  • Resolución: 1920x1080p
  • Formato: MKV
  • Codec: H.264
  • Encoder: Melkor
  • Mediainfo: Clic para Mostrar Datos Ver
  • Amor Sin Barreras (2021) PLACEBO 1080p Latino.mkv
    Format                      : Matroska
    Format version              : Version 4
    File size                   : 10.2 GiB
    Duration                    : 2 h 36 min
    Overall bit rate            : 9 344 kb/s
    Movie name                  : West Side Story (2021) CinemaniaHDD.Net
    Encoded date                : UTC 2022-03-02 08:23:44
    Writing application         : mkvmerge v56.1.0 ('My Friend') 64-bit
    Writing library             : libebml v1.4.2 + libmatroska v1.6.4
    Attachments                 : CINEMANIAHD.png

    Video
    ID                          : 1
    Format                      : AVC
    Format/Info                 : Advanced Video Codec
    Format profile              : High@L4.1
    Format settings             : CABAC / 4 Ref Frames
    Format settings, CABAC      : Yes
    Format settings, Reference  : 4 frames
    Codec ID                    : V_MPEG4/ISO/AVC
    Duration                    : 2 h 36 min
    Bit rate                    : 7 180 kb/s
    Width                       : 1 920 pixels
    Height                      : 1 080 pixels
    Display aspect ratio        : 16:9
    Frame rate mode             : Constant
    Frame rate                  : 23.976 (24000/1001) FPS
    Color space                 : YUV
    Chroma subsampling          : 4:2:0
    Bit depth                   : 8 bits
    Scan type                   : Progressive
    Bits/(Pixel*Frame)          : 0.144
    Stream size                 : 7.84 GiB (77%)
    Title                       : Full HD1080p [CinemaniaHDD]
    Writing library             : x264 core 163 r3059 b684ebe0
    Encoding settings           : cabac=1 / ref=4 / deblock=1:0:0 / analyse=0x3:0x133 / me=tesa / subme=11 / psy=1 / psy_rd=1.00:0.00 / mixed_ref=1 / me_range=24 / chroma_me=1 / trellis=2 / 8x8dct=1 / cqm=0 / deadzone=21,11 / fast_pskip=0 / chroma_qp_offset=-2 / threads=24 / lookahead_threads=6 / sliced_threads=0 / nr=0 / decimate=1 / interlaced=0 / bluray_compat=0 / constrained_intra=0 / bframes=16 / b_pyramid=2 / b_adapt=2 / b_bias=0 / direct=3 / weightb=1 / open_gop=0 / weightp=2 / keyint=240 / keyint_min=24 / scenecut=40 / intra_refresh=0 / rc_lookahead=60 / rc=crf / mbtree=1 / crf=19.0 / qcomp=0.60 / qpmin=0 / qpmax=69 / qpstep=4 / vbv_maxrate=62500 / vbv_bufsize=78125 / crf_max=0.0 / nal_hrd=none / filler=0 / ip_ratio=1.40 / aq=1:1.00
    Default                     : Yes
    Forced                      : Yes
    Color range                 : Limited
    Color primaries             : BT.709
    Transfer characteristics    : BT.709
    Matrix coefficients         : BT.709

    Audio #1
    ID                          : 2
    Format                      : AC-3
    Format/Info                 : Audio Coding 3
    Commercial name             : Dolby Digital
    Codec ID                    : A_AC3
    Duration                    : 2 h 36 min
    Bit rate mode               : Constant
    Bit rate                    : 384 kb/s
    Channel(s)                  : 6 channels
    Channel layout              : L R C LFE Ls Rs
    Sampling rate               : 48.0 kHz
    Frame rate                  : 31.250 FPS (1536 SPF)
    Compression mode            : Lossy
    Stream size                 : 429 MiB (4%)
    Title                       : Español Latino AC3 [CinemaniaHDD]
    Language                    : Spanish
    Service kind                : Complete Main
    Default                     : Yes
    Forced                      : Yes

    Audio #2
    ID                          : 3
    Format                      : DTS
    Format/Info                 : Digital Theater Systems
    Codec ID                    : A_DTS
    Duration                    : 2 h 36 min
    Bit rate mode               : Constant
    Bit rate                    : 1 509 kb/s
    Channel(s)                  : 6 channels
    Channel layout              : C L R Ls Rs LFE
    Sampling rate               : 48.0 kHz
    Frame rate                  : 93.750 FPS (512 SPF)
    Bit depth                   : 24 bits
    Compression mode            : Lossy
    Stream size                 : 1.65 GiB (16%)
    Title                       : Ingles [CinemaniaHDD]
    Language                    : English
    Default                     : No
    Forced                      : No

    Audio #3
    ID                          : 4
    Format                      : E-AC-3
    Format/Info                 : Enhanced AC-3
    Commercial name             : Dolby Digital Plus
    Codec ID                    : A_EAC3
    Duration                    : 2 h 36 min
    Bit rate mode               : Constant
    Bit rate                    : 256 kb/s
    Channel(s)                  : 6 channels
    Channel layout              : L R C LFE Ls Rs
    Sampling rate               : 48.0 kHz
    Frame rate                  : 31.250 FPS (1536 SPF)
    Compression mode            : Lossy
    Stream size                 : 286 MiB (3%)
    Title                       : Español Latino EAC3 [CinemaniaHDD]
    Language                    : Spanish
    Service kind                : Complete Main
    Default                     : No
    Forced                      : No

    Text #1
    ID                          : 5
    Format                      : UTF-8
    Codec ID                    : S_TEXT/UTF8
    Codec ID/Info               : UTF-8 Plain Text
    Duration                    : 2 h 29 min
    Bit rate                    : 16 b/s
    Count of elements           : 542
    Stream size                 : 18.4 KiB (0%)
    Title                       : Forzados-SRT [CinemaniaHDD]
    Language                    : Spanish
    Default                     : Yes
    Forced                      : Yes

    Text #2
    ID                          : 6
    Format                      : UTF-8
    Codec ID                    : S_TEXT/UTF8
    Codec ID/Info               : UTF-8 Plain Text
    Duration                    : 2 h 29 min
    Bit rate                    : 50 b/s
    Count of elements           : 1819
    Stream size                 : 55.3 KiB (0%)
    Title                       : Español-SRT [CinemaniaHDD]
    Language                    : Spanish
    Default                     : No
    Forced                      : No

    Text #3
    ID                          : 7
    ID in the original source m : 4608 (0x1200)
    Format                      : PGS
    Muxing mode                 : zlib
    Codec ID                    : S_HDMV/PGS
    Codec ID/Info               : Picture based subtitle format used on BDs/HD-DVDs
    Duration                    : 2 h 26 min
    Bit rate                    : 41.1 kb/s
    Count of elements           : 4866
    Stream size                 : 43.1 MiB (0%)
    Title                       : Ingles [CinemaniaHDD]
    Language                    : English
    Default                     : No
    Forced                      : No
    Original source medium      : Blu-ray

    Menu
    00:00:00.000                : Chapter 01
    00:07:34.162                : Chapter 02
    00:13:14.335                : Chapter 03
    00:16:45.170                : Chapter 04
    00:20:45.494                : Chapter 05
    00:25:04.961                : Chapter 06
    00:30:40.255                : Chapter 07
    00:35:07.146                : Chapter 08
    00:38:42.570                : Chapter 09
    00:43:52.212                : Chapter 10
    00:45:50.122                : Chapter 11
    00:48:53.305                : Chapter 12
    00:56:42.399                : Chapter 13
    01:03:14.457                : Chapter 14
    01:08:33.692                : Chapter 15
    01:20:01.755                : Chapter 16
    01:26:38.610                : Chapter 17
    01:33:58.924                : Chapter 18
    01:37:26.590                : Chapter 19
    01:46:58.286                : Chapter 20
    01:51:18.630                : Chapter 21
    01:59:52.351                : Chapter 22
    02:06:32.543                : Chapter 23
    02:18:32.137                : Chapter 24
    02:27:05.817                : Chapter 25

  • Peso: 10.2 GiB

Sinopsis

Descargar Amor Sin Barreras (2021) PLACEBO Full HD 1080p Latino. Nueva versión del legendario musical ‘West Side Story’ sobre el enfrentamiento entre dos bandas callejeras de Nueva York. Adaptación de una famosa obra de teatro de Broadway que modernizaba el relato de «Romeo y Julieta» de Shakespeare.

Español Latino EAC3 & AC3 5.1 WebDL – Ingles DTS 5.1 Bluray

Ficha técnica

Video trailer de la película

Enlaces de descarga

Rip de Bluray

Descargar Amor Sin Barreras (2021) PLACEBO Full HD 1080p Latino




Aportes de DPeliculasHDmega la pass es:dpeliculashdmega.org Aportes de CinemaniaHD la pass es:cinemaniahdd.com

Películas relacionadas

descargar Amor Sin Barreras (2021) PLACEBO Full HD 1080p Latino Full 1080p 1080p gratis, Amor Sin Barreras (2021) PLACEBO Full HD 1080p Latino Full 1080p mega 1 link, Amor Sin Barreras (2021) PLACEBO Full HD 1080p Latino Full 1080p pelicula completa, descargar Amor Sin Barreras (2021) PLACEBO Full HD 1080p Latino Full 1080p gratis en mega.

Amor Sin Barreras (2021) PLACEBO Full HD 1080p Latino pelicula full hd, Amor Sin Barreras (2021) PLACEBO Full HD 1080p Latino mega latino, Amor Sin Barreras (2021) PLACEBO Full HD 1080p Latino 4k latino, Amor Sin Barreras (2021) PLACEBO Full HD 1080p Latino pelicula completa, Amor Sin Barreras (2021) PLACEBO Full HD 1080p Latino descargar gratis, descargar Amor Sin Barreras (2021) PLACEBO Full HD 1080p Latino pelicula latino, Amor Sin Barreras (2021) PLACEBO Full HD 1080p Latino 1 link mega, Amor Sin Barreras (2021) PLACEBO Full HD 1080p Latino 1 link google drive, Amor Sin Barreras (2021) PLACEBO Full HD 1080p Latino hd 1080p latino.
Comentarios 0