×

¿Problemas para descargar con Mozilla, EDGE? Deshabilita la opción "Abrir vinculos en una pestaña nueva" tal como lo muestra ésta imagen.

Amor, sexo y 30 velitas (2023) NF WEB-DL 1080p Latino

129 vistas

Información de Amor, sexo y 30 velitas (2023) NF WEB-DL 1080p Latino

Datos de la película

  • Calidad: WEBDL
  • Audio: Español Latino E-AC3 5.1 Netflix - Ingles E-AC3 5.1 Netflix
  • Subtitulos: Español Latino SRT- FORZADOS SRT
  • Resolución: 1920x1080p
  • Formato: MKV
  • Codec: H.264
  • Encoder: Melkor
  • Mediainfo: Clic para Mostrar Datos Ver
  • Amor, sexo y 30 velitas (2023) NF WebDL 1080p Latino.mkv
    Format                      : Matroska
    Format version              : Version 4
    File size                   : 4.98 GiB
    Duration                    : 1 h 46 min
    Overall bit rate mode       : Variable
    Overall bit rate            : 6 697 kb/s
    Movie name                  : Love Sex and 30 Candles (2023) CinemaniaHDD.Net
    Encoded date                : UTC 2023-08-30 08:15:37
    Writing application         : mkvmerge v56.1.0 ('My Friend') 64-bit
    Writing library             : libebml v1.4.2 + libmatroska v1.6.4
    Attachments                 : CINEMANIAHD.png
    Site                        : CinemaniaHDD.Net
    Uploader                    : Melkor

    Video
    ID                          : 1
    Format                      : AVC
    Format/Info                 : Advanced Video Codec
    Format profile              : Main@L4
    Format settings             : CABAC / 3 Ref Frames
    Format settings, CABAC      : Yes
    Format settings, Reference  : 3 frames
    Codec ID                    : V_MPEG4/ISO/AVC
    Duration                    : 1 h 46 min
    Bit rate mode               : Variable
    Bit rate                    : 5 000 kb/s
    Maximum bit rate            : 7 500 kb/s
    Width                       : 1 920 pixels
    Height                      : 1 080 pixels
    Display aspect ratio        : 16:9
    Frame rate mode             : Constant
    Frame rate                  : 25.000 FPS
    Color space                 : YUV
    Chroma subsampling          : 4:2:0
    Bit depth                   : 8 bits
    Scan type                   : Progressive
    Bits/(Pixel*Frame)          : 0.096
    Stream size                 : 3.69 GiB (74%)
    Title                       : Web HD1080p [CinemaniaHDD]
    Writing library             : x264 core 148 r2727 7d026e8
    Encoding settings           : cabac=1 / ref=3 / deblock=1:0:0 / analyse=0x1:0x111 / me=umh / subme=10 / psy=1 / psy_rd=1.00:0.00 / mixed_ref=1 / me_range=24 / chroma_me=1 / trellis=2 / 8x8dct=0 / cqm=0 / deadzone=21,11 / fast_pskip=1 / chroma_qp_offset=-2 / threads=6 / lookahead_threads=1 / sliced_threads=0 / nr=0 / decimate=1 / interlaced=0 / bluray_compat=0 / stitchable=1 / constrained_intra=0 / bframes=2 / b_pyramid=0 / b_adapt=2 / b_bias=0 / direct=3 / weightb=1 / open_gop=0 / weightp=2 / keyint=50 / keyint_min=26 / scenecut=0 / intra_refresh=0 / rc_lookahead=50 / rc=2pass / mbtree=1 / bitrate=5000 / ratetol=1.0 / qcomp=0.50 / qpmin=6 / qpmax=51 / qpstep=4 / cplxblur=20.0 / qblur=0.5 / vbv_maxrate=7500 / vbv_bufsize=10000 / nal_hrd=vbr / filler=0 / ip_ratio=1.40 / aq=1:1.00
    Default                     : Yes
    Forced                      : Yes

    Audio #1
    ID                          : 2
    Format                      : AC-3
    Format/Info                 : Audio Coding 3
    Commercial name             : Dolby Digital
    Codec ID                    : A_AC3
    Duration                    : 1 h 46 min
    Bit rate mode               : Constant
    Bit rate                    : 448 kb/s
    Channel(s)                  : 6 channels
    Channel layout              : L R C LFE Ls Rs
    Sampling rate               : 48.0 kHz
    Frame rate                  : 31.250 FPS (1536 SPF)
    Compression mode            : Lossy
    Stream size                 : 341 MiB (7%)
    Title                       : Español Latino AC3 [CinemaniaHDD]
    Language                    : Spanish
    Service kind                : Complete Main
    Default                     : Yes
    Forced                      : Yes

    Audio #2
    ID                          : 3
    Format                      : E-AC-3
    Format/Info                 : Enhanced AC-3
    Commercial name             : Dolby Digital Plus
    Codec ID                    : A_EAC3
    Duration                    : 1 h 46 min
    Bit rate mode               : Constant
    Bit rate                    : 640 kb/s
    Channel(s)                  : 6 channels
    Channel layout              : L R C LFE Ls Rs
    Sampling rate               : 48.0 kHz
    Frame rate                  : 31.250 FPS (1536 SPF)
    Compression mode            : Lossy
    Stream size                 : 487 MiB (10%)
    Title                       : Español Latino EAC3 [CinemaniaHDD]
    Language                    : Spanish
    Service kind                : Complete Main
    Default                     : No
    Forced                      : No

    Audio #3
    ID                          : 4
    Format                      : E-AC-3
    Format/Info                 : Enhanced AC-3
    Commercial name             : Dolby Digital Plus
    Codec ID                    : A_EAC3
    Duration                    : 1 h 46 min
    Bit rate mode               : Constant
    Bit rate                    : 640 kb/s
    Channel(s)                  : 6 channels
    Channel layout              : L R C LFE Ls Rs
    Sampling rate               : 48.0 kHz
    Frame rate                  : 31.250 FPS (1536 SPF)
    Compression mode            : Lossy
    Stream size                 : 487 MiB (10%)
    Title                       : Ingles [CinemaniaHDD]
    Language                    : English
    Service kind                : Complete Main
    Default                     : No
    Forced                      : No

    Text #1
    ID                          : 5
    Format                      : UTF-8
    Codec ID                    : S_TEXT/UTF8
    Codec ID/Info               : UTF-8 Plain Text
    Duration                    : 1 h 44 min
    Bit rate                    : 2 b/s
    Count of elements           : 42
    Stream size                 : 1.57 KiB (0%)
    Title                       : Forzados-SRT [CinemaniaHDD]
    Language                    : Spanish
    Default                     : Yes
    Forced                      : Yes

    Text #2
    ID                          : 6
    Format                      : UTF-8
    Codec ID                    : S_TEXT/UTF8
    Codec ID/Info               : UTF-8 Plain Text
    Duration                    : 1 h 45 min
    Bit rate                    : 54 b/s
    Count of elements           : 1438
    Stream size                 : 42.0 KiB (0%)
    Title                       : Español-SRT [CinemaniaHDD]
    Language                    : Spanish
    Default                     : No
    Forced                      : No

    Text #3
    ID                          : 7
    Format                      : UTF-8
    Codec ID                    : S_TEXT/UTF8
    Codec ID/Info               : UTF-8 Plain Text
    Duration                    : 1 h 43 min
    Bit rate                    : 75 b/s
    Count of elements           : 1798
    Stream size                 : 57.0 KiB (0%)
    Title                       : Ingles-SRT [CinemaniaHDD]
    Language                    : English
    Default                     : No
    Forced                      : No

  • Peso: 4.98 GiB

Sinopsis

Descargar Amor, sexo y 30 velitas (2023) NF WEB-DL 1080p Latino. Durante el año en que van a cumplir los 30, cuatro amigas íntimas lidian con relaciones sentimentales, momentos tristes y una situación complicada que podría separarlas.

Ficha técnica

Video trailer de la película

Enlaces de descarga

Rip de Bluray

Descargar Amor, sexo y 30 velitas (2023) NF WEB-DL 1080p Latino




Aportes de DPeliculasHDmega la pass es:dpeliculashdmega.org Aportes de CinemaniaHD la pass es:cinemaniahdd.com Aportes recientes:cinemaniahdd.net
Guardado en : Drama , Netflix , Romance

Películas relacionadas

  • Viviendo con mi ex (2006) REMUX 1080p Latino-CMHDD

    Viviendo con mi ex (2006) REMUX 1080p Latino-CMHDD

    2006
    Viviendo con mi ex (2006) REMUX 1080p Latino-CMHDD

    1h 46m 2006

    Descargar Viviendo con mi ex (2006) REMUX 1080p Latino-CMHDD. Relato sobre las consecuencias de una ruptura...

    Director: Todd Amateau

    Género: Comedia

    Actores: William Dick

  • La Otra Cara de Dorian (2023) WEB-DL 1080p Latino

    La Otra Cara de Dorian (2023) WEB-DL 1080p Latino

    2023
    La Otra Cara de Dorian (2023) WEB-DL 1080p Latino

    1h 40m 2023

    Descargar La Otra Cara de Dorian (2023) WEB-DL 1080p Latino. Una versión moderna del cuento de Oscar...

    Director: Richard John Taylor

    Género: Drama

    Actores: Triana Terry

  • Noche de Bodas (2024) WEB-DL 1080p Latino

    Noche de Bodas (2024) WEB-DL 1080p Latino

    2024
    Noche de Bodas (2024) WEB-DL 1080p Latino

    0h 0m 2024

    Descargar Noche de Bodas (2024) WEB-DL 1080p Latino. Lucía y Nico, la pareja del siglo, están a punto...

    Director: Osvaldo Benavides

    Género: Comedia

    Actores: Verónica Langer

  • Arthur: Una Amistad sin Limites (2024) HD 1080p Latino

    Arthur: Una Amistad sin Limites (2024) HD 1080p Latino

    2024
    Arthur: Una Amistad sin Limites (2024) HD 1080p Latino

    1h 47m 2024

    Descargar Arthur: Una Amistad sin Limites (2024) HD 1080p Latino. Mikael Lindnord, el capitán del equipo...

    Director: Simon Cellan Jones

    Género: Aventura

    Actores: Zamantha Díaz

descargar Amor, sexo y 30 velitas (2023) NF WEB-DL 1080p Latino WEBDL 1080p gratis, Amor, sexo y 30 velitas (2023) NF WEB-DL 1080p Latino WEBDL mega 1 link, Amor, sexo y 30 velitas (2023) NF WEB-DL 1080p Latino WEBDL pelicula completa, descargar Amor, sexo y 30 velitas (2023) NF WEB-DL 1080p Latino WEBDL gratis en mega.

Amor, sexo y 30 velitas (2023) NF WEB-DL 1080p Latino pelicula full hd, Amor, sexo y 30 velitas (2023) NF WEB-DL 1080p Latino mega latino, Amor, sexo y 30 velitas (2023) NF WEB-DL 1080p Latino 4k latino, Amor, sexo y 30 velitas (2023) NF WEB-DL 1080p Latino pelicula completa, Amor, sexo y 30 velitas (2023) NF WEB-DL 1080p Latino descargar gratis, descargar Amor, sexo y 30 velitas (2023) NF WEB-DL 1080p Latino pelicula latino, Amor, sexo y 30 velitas (2023) NF WEB-DL 1080p Latino 1 link mega, Amor, sexo y 30 velitas (2023) NF WEB-DL 1080p Latino 1 link google drive, Amor, sexo y 30 velitas (2023) NF WEB-DL 1080p Latino hd 1080p latino.
Comentarios 0