×

¿Problemas para descargar con Mozilla, EDGE? Deshabilita la opción "Abrir vinculos en una pestaña nueva" tal como lo muestra ésta imagen.

Amor Redentor (2022) REMUX 1080p Latino

533 vistas

Información de Amor Redentor (2022) REMUX 1080p Latino

Datos de la película

  • Calidad: Full 1080p
  • Audio: Español Latino AC3 2.0 WEB-DL - Ingles DTS 5.1 BLURAY
  • Subtitulos: Español Latino PGS - Ingles PGS
  • Resolución: 1920x1080
  • Formato: MKV
  • Codec: H.264
  • Encoder: Melkor
  • Mediainfo: Clic para Mostrar Datos Ver
  • Amor Redentor (2022) REMUX 1080p Latino.mkv
    Format                      : Matroska
    Format version              : Version 4
    File size                   : 35.7 GiB
    Duration                    : 2 h 14 min
    Overall bit rate mode       : Variable
    Overall bit rate            : 38.1 Mb/s
    Movie name                  : Redeeming Love (2022) CinemaniaHDD.Net
    Encoded date                : UTC 2023-10-23 06:55:20
    Writing application         : mkvmerge v56.1.0 ('My Friend') 64-bit
    Writing library             : libebml v1.4.2 + libmatroska v1.6.4
    Attachments                 : CINEMANIAHD.png

    Video
    ID                          : 1
    ID in the original source m : 4113 (0x1011)
    Format                      : AVC
    Format/Info                 : Advanced Video Codec
    Format profile              : High@L4.1
    Format settings             : CABAC / 2 Ref Frames
    Format settings, CABAC      : Yes
    Format settings, Reference  : 2 frames
    Format settings, GOP        : M=1, N=10
    Codec ID                    : V_MPEG4/ISO/AVC
    Duration                    : 2 h 14 min
    Bit rate mode               : Variable
    Bit rate                    : 34.4 Mb/s
    Width                       : 1 920 pixels
    Height                      : 1 080 pixels
    Display aspect ratio        : 16:9
    Frame rate mode             : Constant
    Frame rate                  : 23.976 (24000/1001) FPS
    Color space                 : YUV
    Chroma subsampling          : 4:2:0
    Bit depth                   : 8 bits
    Scan type                   : Progressive
    Bits/(Pixel*Frame)          : 0.692
    Stream size                 : 32.2 GiB (90%)
    Title                       : REMUX HD1080p [CinemaniaHDD]
    Default                     : Yes
    Forced                      : Yes
    Original source medium      : Blu-ray

    Audio #1
    ID                          : 2
    Format                      : AC-3
    Format/Info                 : Audio Coding 3
    Commercial name             : Dolby Digital
    Codec ID                    : A_AC3
    Duration                    : 2 h 14 min
    Bit rate mode               : Constant
    Bit rate                    : 256 kb/s
    Channel(s)                  : 2 channels
    Channel layout              : L R
    Sampling rate               : 48.0 kHz
    Frame rate                  : 31.250 FPS (1536 SPF)
    Compression mode            : Lossy
    Stream size                 : 246 MiB (1%)
    Title                       : Español Latino [CinemaniaHDD]
    Language                    : Spanish
    Service kind                : Complete Main
    Default                     : Yes
    Forced                      : Yes

    Audio #2
    ID                          : 3
    ID in the original source m : 4352 (0x1100)
    Format                      : DTS XLL
    Format/Info                 : Digital Theater Systems
    Commercial name             : DTS-HD Master Audio
    Codec ID                    : A_DTS
    Duration                    : 2 h 14 min
    Bit rate mode               : Variable
    Bit rate                    : 3 466 kb/s
    Channel(s)                  : 6 channels
    Channel layout              : C L R Ls Rs LFE
    Sampling rate               : 48.0 kHz
    Frame rate                  : 93.750 FPS (512 SPF)
    Bit depth                   : 24 bits
    Compression mode            : Lossless
    Stream size                 : 3.25 GiB (9%)
    Title                       : Ingles [CinemaniaHDD]
    Language                    : English
    Default                     : No
    Forced                      : No
    Original source medium      : Blu-ray

    Text #1
    ID                          : 4
    ID in the original source m : 4609 (0x1201)
    Format                      : PGS
    Muxing mode                 : zlib
    Codec ID                    : S_HDMV/PGS
    Codec ID/Info               : Picture based subtitle format used on BDs/HD-DVDs
    Duration                    : 2 h 12 min
    Bit rate                    : 24.5 kb/s
    Count of elements           : 2538
    Stream size                 : 23.2 MiB (0%)
    Title                       : Español-PGS [CinemaniaHDD]
    Language                    : Spanish
    Default                     : No
    Forced                      : No
    Original source medium      : Blu-ray

    Text #2
    ID                          : 5
    ID in the original source m : 4608 (0x1200)
    Format                      : PGS
    Muxing mode                 : zlib
    Codec ID                    : S_HDMV/PGS
    Codec ID/Info               : Picture based subtitle format used on BDs/HD-DVDs
    Duration                    : 2 h 4 min
    Bit rate                    : 32.6 kb/s
    Count of elements           : 2898
    Stream size                 : 29.0 MiB (0%)
    Title                       : Ingles [CinemaniaHDD]
    Language                    : English
    Default                     : No
    Forced                      : No
    Original source medium      : Blu-ray

    Text #3
    ID                          : 6
    Format                      : UTF-8
    Codec ID                    : S_TEXT/UTF8
    Codec ID/Info               : UTF-8 Plain Text
    Duration                    : 1 h 55 min
    Bit rate                    : 0 b/s
    Count of elements           : 11
    Stream size                 : 249 Bytes (0%)
    Title                       : Forzados-SRT [CinemaniaHDD]
    Language                    : Spanish
    Default                     : Yes
    Forced                      : Yes

    Text #4
    ID                          : 7
    Format                      : UTF-8
    Codec ID                    : S_TEXT/UTF8
    Codec ID/Info               : UTF-8 Plain Text
    Duration                    : 2 h 4 min
    Bit rate                    : 40 b/s
    Count of elements           : 1266
    Stream size                 : 36.9 KiB (0%)
    Title                       : Español-SRT [CinemaniaHDD]
    Language                    : Spanish
    Default                     : No
    Forced                      : No

    Menu
    00:00:00.000                : Chapter 01
    00:11:04.246                : Chapter 02
    00:17:04.690                : Chapter 03
    00:22:02.487                : Chapter 04
    00:32:34.077                : Chapter 05
    00:41:48.631                : Chapter 06
    00:47:12.496                : Chapter 07
    00:52:37.362                : Chapter 08
    00:59:27.188                : Chapter 09
    01:03:13.831                : Chapter 10
    01:09:18.529                : Chapter 11
    01:16:21.910                : Chapter 12
    01:24:46.081                : Chapter 13
    01:28:02.443                : Chapter 14
    01:34:09.727                : Chapter 15
    01:44:05.364                : Chapter 16
    01:50:40.091                : Chapter 17
    01:55:54.614                : Chapter 18
    02:01:44.797                : Chapter 19
    02:05:52.545                : Chapter 20

     

  • Peso: 35.7 GiB

Sinopsis

Descargar Amor Redentor (2022) REMUX 1080p Latino. Situada en la Nueva Inglaterra de 1835, la trama sigue la historia de Angela, una pequeña que fue rechazada por su padre debido a que fue producto de una aventura adultera con su madre Mae. Desde entonces, la chica se sintió culpable de la depresión de su madre y de su propio abandono, creciendo con un evidente odio hacia los hombres, todos ellos obsesionados por la fiebre de oro de la época. En su adolescencia, Angela tuvo que venderse a la prostitución para tener un lugar donde dormir y en medio de ese odio, conoce a Michael Hosea, un hombre piadoso que parece cruzar su camino con Angela para conducirla al amor redentor de Dios, desafiando, día a día, las amargas expectativas y resistencia de ella, quien no parece creer que merece algo más en la vida, algo que pueda hacerla verdaderamente feliz.

RESUBIDA

Ficha técnica

Video trailer de la película

Enlaces de descarga

Rip de Bluray

Descargar Amor Redentor (2022) REMUX 1080p Latino




Aportes de DPeliculasHDmega la pass es:dpeliculashdmega.org Aportes de CinemaniaHD la pass es:cinemaniahdd.com Aportes recientes:cinemaniahdd.net
Guardado en : Drama , Historia , Remux , Romance

Películas relacionadas

descargar Amor Redentor (2022) REMUX 1080p Latino Full 1080p 1080p gratis, Amor Redentor (2022) REMUX 1080p Latino Full 1080p mega 1 link, Amor Redentor (2022) REMUX 1080p Latino Full 1080p pelicula completa, descargar Amor Redentor (2022) REMUX 1080p Latino Full 1080p gratis en mega.

Amor Redentor (2022) REMUX 1080p Latino pelicula full hd, Amor Redentor (2022) REMUX 1080p Latino mega latino, Amor Redentor (2022) REMUX 1080p Latino 4k latino, Amor Redentor (2022) REMUX 1080p Latino pelicula completa, Amor Redentor (2022) REMUX 1080p Latino descargar gratis, descargar Amor Redentor (2022) REMUX 1080p Latino pelicula latino, Amor Redentor (2022) REMUX 1080p Latino 1 link mega, Amor Redentor (2022) REMUX 1080p Latino 1 link google drive, Amor Redentor (2022) REMUX 1080p Latino hd 1080p latino.
Comentarios 0