×

¿Problemas para descargar con Mozilla, EDGE? Deshabilita la opción "Abrir vinculos en una pestaña nueva" tal como lo muestra ésta imagen.

Amor a primer mensaje (2023) WEB-DL 4K UHD HDR/DV Latino

248 vistas

Información de Amor a primer mensaje (2023) WEB-DL 4K UHD HDR/DV Latino

Datos de la película

  • Calidad: WEBDL
  • Audio: Español Latino AC3 5.1 WEB-DL - Ingles AC3 5.1 WEB-DL
  • Subtitulos: Español Latino SRT- FORZADOS SRT
  • Resolución: 3840x2160p
  • Formato: MKV
  • Codec: HEVC
  • Encoder: Melkor
  • Mediainfo: Clic para Mostrar Datos Ver
  • Amor a primer mensaje (2023) WEB UHD HDR-DV Latino.mkv
    Format                      : Matroska
    Format version              : Version 4
    File size                   : 18.7 GiB
    Duration                    : 1 h 44 min
    Overall bit rate            : 25.7 Mb/s
    Movie name                  : Love Again (2023) CinemaniaHDD.Net
    Encoded date                : UTC 2023-06-13 04:50:55
    Writing application         : mkvmerge v56.1.0 ('My Friend') 64-bit
    Writing library             : libebml v1.4.2 + libmatroska v1.6.4
    Attachments                 : CINEMANIAHD.png
    Site                        : CinemaniaHDD.Net
    Uploader                    : Melkor

    Video
    ID                          : 1
    Format                      : HEVC
    Format/Info                 : High Efficiency Video Coding
    Format profile              : Main 10@L5@High
    HDR format                  : Dolby Vision, Version 1.0, dvhe.08.06, BL+RPU, HDR10 compatible / SMPTE ST 2086, HDR10 compatible
    Codec ID                    : V_MPEGH/ISO/HEVC
    Duration                    : 1 h 44 min
    Bit rate                    : 24.5 Mb/s
    Width                       : 3 840 pixels
    Height                      : 2 160 pixels
    Display aspect ratio        : 16:9
    Frame rate mode             : Constant
    Frame rate                  : 23.976 (24000/1001) FPS
    Color space                 : YUV
    Chroma subsampling          : 4:2:0 (Type 2)
    Bit depth                   : 10 bits
    Bits/(Pixel*Frame)          : 0.123
    Stream size                 : 17.9 GiB (96%)
    Title                       : Web 2160p HDR [CinemaniaHDD]
    Default                     : Yes
    Forced                      : No
    Color range                 : Limited
    Color primaries             : BT.2020
    Transfer characteristics    : PQ
    Matrix coefficients         : BT.2020 non-constant
    Mastering display color pri : Display P3
    Mastering display luminance : min: 0.0001 cd/m2, max: 1000 cd/m2
    Maximum Content Light Level : 1042 cd/m2
    Maximum Frame-Average Light : 321 cd/m2

    Audio #1
    ID                          : 2
    Format                      : AC-3
    Format/Info                 : Audio Coding 3
    Commercial name             : Dolby Digital
    Codec ID                    : A_AC3
    Duration                    : 1 h 44 min
    Bit rate mode               : Constant
    Bit rate                    : 384 kb/s
    Channel(s)                  : 6 channels
    Channel layout              : L R C LFE Ls Rs
    Sampling rate               : 48.0 kHz
    Frame rate                  : 31.250 FPS (1536 SPF)
    Compression mode            : Lossy
    Delay relative to video     : 21 ms
    Stream size                 : 287 MiB (1%)
    Title                       : Español Latino [CinemaniaHDD]
    Language                    : Spanish
    Service kind                : Complete Main
    Default                     : Yes
    Forced                      : Yes

    Audio #2
    ID                          : 3
    Format                      : E-AC-3 JOC
    Format/Info                 : Enhanced AC-3 with Joint Object Coding
    Commercial name             : Dolby Digital Plus with Dolby Atmos
    Codec ID                    : A_EAC3
    Duration                    : 1 h 44 min
    Bit rate mode               : Constant
    Bit rate                    : 768 kb/s
    Channel(s)                  : 6 channels
    Channel layout              : L R C LFE Ls Rs
    Sampling rate               : 48.0 kHz
    Frame rate                  : 31.250 FPS (1536 SPF)
    Compression mode            : Lossy
    Stream size                 : 573 MiB (3%)
    Title                       : Ingles [CinemaniaHDD]
    Language                    : English
    Service kind                : Complete Main
    Default                     : No
    Forced                      : No
    Complexity index            : 16
    Number of dynamic objects   : 15
    Bed channel count           : 1 channel
    Bed channel configuration   : LFE

    Text #1
    ID                          : 4
    Format                      : UTF-8
    Codec ID                    : S_TEXT/UTF8
    Codec ID/Info               : UTF-8 Plain Text
    Duration                    : 1 h 42 min
    Bit rate                    : 4 b/s
    Count of elements           : 80
    Stream size                 : 3.31 KiB (0%)
    Title                       : Forzados-SRT [CinemaniaHDD]
    Language                    : Spanish
    Default                     : Yes
    Forced                      : Yes

    Text #2
    ID                          : 5
    Format                      : UTF-8
    Codec ID                    : S_TEXT/UTF8
    Codec ID/Info               : UTF-8 Plain Text
    Duration                    : 1 h 41 min
    Bit rate                    : 70 b/s
    Count of elements           : 1552
    Stream size                 : 52.5 KiB (0%)
    Title                       : Español-SRT [CinemaniaHDD]
    Language                    : Spanish
    Default                     : No
    Forced                      : No

    Text #3
    ID                          : 6
    Format                      : UTF-8
    Codec ID                    : S_TEXT/UTF8
    Codec ID/Info               : UTF-8 Plain Text
    Duration                    : 1 h 38 min
    Bit rate                    : 57 b/s
    Count of elements           : 1374
    Stream size                 : 41.4 KiB (0%)
    Title                       : Ingles-SRT [CinemaniaHDD]
    Language                    : English
    Default                     : No
    Forced                      : No

    Menu
    00:00:00.000                : Chapter 01
    00:06:14.499                : Chapter 02
    00:14:32.664                : Chapter 03
    00:20:17.092                : Chapter 04
    00:27:15.468                : Chapter 05
    00:32:32.744                : Chapter 06
    00:38:09.414                : Chapter 07
    00:46:44.763                : Chapter 08
    00:52:44.122                : Chapter 09
    01:01:41.868                : Chapter 10
    01:07:08.653                : Chapter 11
    01:13:06.094                : Chapter 12
    01:19:14.212                : Chapter 13
    01:27:04.057                : Chapter 14
    01:32:02.313                : Chapter 15
    01:37:46.825                : Chapter 16

  • Peso: 18.7 GiB

Sinopsis

Descargar Amor a primer mensaje (2023) WEB-DL 4K UHD HDR/DV Latino. Mientras intenta superar la pérdida de su prometido, Mira Ray envía una serie de mensajes románticos a su antiguo número de teléfono… sin tener en cuenta que el número había sido reasignado al nuevo teléfono de trabajo de Rob Burns. Rob, periodista, queda sorprendido por la honestidad de los mensajes de texto. Cuando le asignan la tarea de escribir un artículo sobre la megaestrella Celine Dion, él le pide ayuda para averiguar cómo conocer a Mira en persona… y conquistar así su corazón.

Ficha técnica

Video trailer de la película

Enlaces de descarga

Rip de Bluray

Descargar Amor a primer mensaje (2023) WEB-DL 4K UHD HDR/DV Latino




Aportes de DPeliculasHDmega la pass es:dpeliculashdmega.org Aportes de CinemaniaHD la pass es:cinemaniahdd.com Aportes recientes:cinemaniahdd.net
Guardado en : 4K HDR , 4K UHD , Comedia , Drama , Romance

Películas relacionadas

descargar Amor a primer mensaje (2023) WEB-DL 4K UHD HDR/DV Latino WEBDL 1080p gratis, Amor a primer mensaje (2023) WEB-DL 4K UHD HDR/DV Latino WEBDL mega 1 link, Amor a primer mensaje (2023) WEB-DL 4K UHD HDR/DV Latino WEBDL pelicula completa, descargar Amor a primer mensaje (2023) WEB-DL 4K UHD HDR/DV Latino WEBDL gratis en mega.

Amor a primer mensaje (2023) WEB-DL 4K UHD HDR/DV Latino pelicula full hd, Amor a primer mensaje (2023) WEB-DL 4K UHD HDR/DV Latino mega latino, Amor a primer mensaje (2023) WEB-DL 4K UHD HDR/DV Latino 4k latino, Amor a primer mensaje (2023) WEB-DL 4K UHD HDR/DV Latino pelicula completa, Amor a primer mensaje (2023) WEB-DL 4K UHD HDR/DV Latino descargar gratis, descargar Amor a primer mensaje (2023) WEB-DL 4K UHD HDR/DV Latino pelicula latino, Amor a primer mensaje (2023) WEB-DL 4K UHD HDR/DV Latino 1 link mega, Amor a primer mensaje (2023) WEB-DL 4K UHD HDR/DV Latino 1 link google drive, Amor a primer mensaje (2023) WEB-DL 4K UHD HDR/DV Latino hd 1080p latino.
Comentarios 0